<?xml version="1.0" standalone="no"?>
<!DOCTYPE svg PUBLIC "-//W3C//DTD SVG 1.1//EN" "http://www.w3.org/Graphics/SVG/1.1/DTD/svg11.dtd" >
<svg xmlns="http://www.w3.org/2000/svg">
<metadata>Generated by IcoMoon</metadata>
<defs>
<font id="NextSystemIcons" horiz-adv-x="1024">
<font-face units-per-em="1024" ascent="960" descent="-64" />
<missing-glyph horiz-adv-x="1024" />
<glyph unicode="&#x20;" horiz-adv-x="512" d="" />
<glyph unicode="&#xe900;" glyph-name="system_accessibility_audio_description" d="M768 874.667c114.72 0 208.291-90.552 213.136-204.079v0l0.197-9.254v-299.315c0-117.821-95.513-213.333-213.333-213.333v0l-417.536 0.008-241.203-162.732c-26.988-18.204-62.909-0.657-66.271 30.582v0l-0.255 4.786-0.054 639.994c-0.027 113.862 89.374 207.517 203.737 213.135v0l9.71 0.208zM768 789.333l-518.434-0.144c-67.921-3.344-121.568-59.544-121.552-127.853v0l0.028-559.748 185.552 125.134c5.639 3.804 12.084 6.19 18.79 6.993v0l5.070 0.302h430.545c70.692 0 128 57.308 128 128v0 299.315c0 70.692-57.308 128-128 128v0zM448.059 703.861c21.881 0 39.915-16.471 42.38-37.691l0.287-4.976v-298.401c0-23.564-19.103-42.667-42.667-42.667-21.881 0-39.915 16.471-42.38 37.691l-0.287 4.976-0.002 85.547-96.935-0.152c-10.112-29.038-21.199-61.973-33.171-98.639-7.314-22.4-31.402-34.63-53.802-27.316s-34.63 31.402-27.316 53.802l15.24 46.156c42.494 127.118 71.848 200.586 92.013 227.597 28.159 37.72 77.948 54.071 146.64 54.071zM682.269 704.127l6.315-0.47c41.317-6.184 76.323-26.329 103.267-59.229 27.217-33.234 40.090-77.855 40.090-132.524 0-59.572-14.43-106.516-45.493-139.055-29.081-30.464-62.552-48.525-99.56-52.48v0l-4.534-0.242h-106.412c-23.564 0-42.667 19.103-42.667 42.667v0 298.667c0 23.564 19.103 42.667 42.667 42.667v0h106.328zM675.953 619.264l2.447-0.469h-59.819v-213.333h60.544l4.572 0.7c11.729 2.518 23.312 8.87 35.108 19.775v0l5.918 5.835c13.855 14.514 21.884 40.633 21.884 80.132 0 36.438-7.416 62.143-20.776 78.457-13.633 16.647-29.676 25.879-49.879 28.903v0zM405.376 615.168l-4.087-0.801c-14.218-3.083-23.902-7.695-29.392-13.208l-2.097-2.416c-6.387-8.556-16.596-30.597-30.134-65.229l65.682 0.162 0.028 81.493z" />
<glyph unicode="&#xe901;" glyph-name="system_accessibility_braille" d="M256 234.667c70.692 0 128-57.308 128-128s-57.308-128-128-128c-70.692 0-128 57.308-128 128s57.308 128 128 128zM768 192c47.128 0 85.333-38.205 85.333-85.333s-38.205-85.333-85.333-85.333c-47.128 0-85.333 38.205-85.333 85.333s38.205 85.333 85.333 85.333zM256 149.333c-23.564 0-42.667-19.103-42.667-42.667s19.103-42.667 42.667-42.667c23.564 0 42.667 19.103 42.667 42.667s-19.103 42.667-42.667 42.667zM768 576c70.692 0 128-57.308 128-128s-57.308-128-128-128c-70.692 0-128 57.308-128 128s57.308 128 128 128zM256 533.333c47.128 0 85.333-38.205 85.333-85.333s-38.205-85.333-85.333-85.333c-47.128 0-85.333 38.205-85.333 85.333s38.205 85.333 85.333 85.333zM768 490.667c-23.564 0-42.667-19.103-42.667-42.667s19.103-42.667 42.667-42.667c23.564 0 42.667 19.103 42.667 42.667s-19.103 42.667-42.667 42.667zM256 917.333c70.692 0 128-57.308 128-128s-57.308-128-128-128c-70.692 0-128 57.308-128 128s57.308 128 128 128zM768 917.333c70.692 0 128-57.308 128-128s-57.308-128-128-128c-70.692 0-128 57.308-128 128s57.308 128 128 128zM256 832c-23.564 0-42.667-19.103-42.667-42.667s19.103-42.667 42.667-42.667c23.564 0 42.667 19.103 42.667 42.667s-19.103 42.667-42.667 42.667zM768 832c-23.564 0-42.667-19.103-42.667-42.667s19.103-42.667 42.667-42.667c23.564 0 42.667 19.103 42.667 42.667s-19.103 42.667-42.667 42.667z" />
<glyph unicode="&#xe902;" glyph-name="system_accessibility_closed_captioning" d="M853.333 832c70.692 0 128-57.308 128-128v0-512c0-70.692-57.308-128-128-128v0h-682.667c-70.692 0-128 57.308-128 128v0 512c0 70.692 57.308 128 128 128v0zM853.333 746.667h-682.667c-23.564 0-42.667-19.103-42.667-42.667v0-512c0-23.564 19.103-42.667 42.667-42.667v0h682.667c23.564 0 42.667 19.103 42.667 42.667v0 512c0 23.564-19.103 42.667-42.667 42.667v0zM376.48 640c33.479 0 65.72-9.33 93.902-26.696 20.061-12.362 26.303-38.646 13.942-58.707s-38.646-26.303-58.707-13.942c-14.861 9.157-31.634 14.011-49.137 14.011-54.25 0-99.147-47.277-99.147-106.667s44.897-106.667 99.147-106.667c14.553 0 28.602 3.356 41.467 9.751l7.571 4.199c20.076 12.338 46.353 6.065 58.69-14.011s6.065-46.353-14.011-58.69c-28.14-17.293-60.312-26.582-93.717-26.582-102.393 0-184.48 86.44-184.48 192s82.088 192 184.48 192zM717.814 640c33.479 0 65.72-9.33 93.902-26.696 20.061-12.362 26.303-38.646 13.942-58.707s-38.646-26.303-58.707-13.942c-14.861 9.157-31.634 14.011-49.137 14.011-54.25 0-99.147-47.277-99.147-106.667s44.897-106.667 99.147-106.667c14.553 0 28.602 3.356 41.467 9.751l7.571 4.199c20.076 12.338 46.353 6.065 58.69-14.011s6.065-46.353-14.011-58.69c-28.14-17.293-60.312-26.582-93.717-26.582-102.393 0-184.48 86.44-184.48 192s82.088 192 184.48 192z" />
<glyph unicode="&#xe903;" glyph-name="system_accessibility_creative_commons" d="M512 917.333c-259.206 0-469.333-210.128-469.333-469.333s210.128-469.333 469.333-469.333c259.206 0 469.333 210.128 469.333 469.333s-210.128 469.333-469.333 469.333zM512 832c212.077 0 384-171.923 384-384s-171.923-384-384-384c-212.077 0-384 171.923-384 384s171.923 384 384 384zM370.99 618.659c25.768 0.487 51.281-5.167 74.431-16.495 21.166-10.358 29.927-35.912 19.57-57.078-9.618-19.654-32.339-28.612-52.483-21.499l-4.596 1.929c-10.981 5.374-23.084 8.056-36.115 7.817-52.359 0-73.131-28.903-73.131-85.333s20.772-85.333 73.938-85.341c9.779-0.185 19.481 1.495 28.593 4.925l6.715 2.9c21.166 10.358 46.72 1.596 57.078-19.57s1.596-46.72-19.57-57.078c-23.149-11.328-48.663-16.983-73.624-16.503-106.702 0-158.464 72.026-158.464 170.667s51.762 170.667 157.657 170.659zM669.657 618.659c25.768 0.487 51.281-5.167 74.431-16.495 21.166-10.358 29.927-35.912 19.57-57.078-9.618-19.654-32.339-28.612-52.483-21.499l-4.596 1.929c-10.981 5.374-23.084 8.056-36.115 7.817-52.359 0-73.131-28.903-73.131-85.333s20.772-85.333 73.938-85.341c9.779-0.185 19.481 1.495 28.593 4.925l6.715 2.9c21.166 10.358 46.72 1.596 57.078-19.57s1.596-46.72-19.57-57.078c-23.149-11.328-48.663-16.983-73.624-16.503-106.702 0-158.464 72.026-158.464 170.667s51.762 170.667 157.657 170.659z" />
<glyph unicode="&#xe904;" glyph-name="system_accessibility_deaf" d="M515.556 764.444c88.469 0 159.999-72.304 159.999-161.496-0.132-24.619-5.909-48.879-16.884-70.881-10.518-21.087-36.138-29.654-57.225-19.136-19.58 9.767-28.366 32.555-21.1 52.644l1.964 4.581c5.14 10.305 7.851 21.689 7.912 33.021 0 42.039-33.533 75.934-74.667 75.934-39.077 0-71.294-30.59-74.418-69.693l-0.248-6.242c0-23.564-19.103-42.667-42.667-42.667s-42.667 19.103-42.667 42.667c0 88.964 71.531 161.268 160 161.268zM908.459 904.585c16.633 16.692 43.648 16.74 60.34 0.107 15.408-15.353 16.634-39.553 3.65-56.314l-3.542-4.026-60.232-60.447c-16.633-16.692-43.648-16.74-60.34-0.107-15.408 15.353-16.634 39.553-3.65 56.314l3.542 4.026 60.232 60.447zM435.644-21.333l-10.708 0.349c-41.071 2.416-80.502 17.273-112.792 42.694-18.515 14.576-21.707 41.402-7.131 59.917s41.402 21.707 59.917 7.131c17.977-14.153 39.912-22.638 62.876-24.41l8.289-0.348 6.715 0.239c51.982 3.492 91.069 45.102 107.443 111.691l2.091 9.234c15.274 73.518 40.613 118.669 93.817 182.491l17.763 20.902c65.536 76.545 86.296 119.891 86.296 214.595 0 126.185-104.864 228.848-234.667 228.848s-234.667-102.664-234.667-228.848c0-23.564-19.103-42.667-42.667-42.667s-42.667 19.103-42.667 42.667c0 173.723 143.469 314.182 320 314.182s320-140.459 320-314.182c0-113.696-26.957-174.529-97.732-259.359l-16.513-19.416c-48.548-56.744-69.992-91.044-82.934-145.411l-2.48-11.154c-22.31-107.471-91.745-184.226-190.595-188.918l-9.657-0.228zM481.83 478.17c16.662 16.662 43.677 16.662 60.34 0 15.381-15.381 16.564-39.583 3.549-56.32l-3.549-4.020-426.667-426.667c-16.662-16.662-43.677-16.662-60.34 0-15.381 15.381-16.564 39.583-3.549 56.32l3.549 4.020 426.667 426.667z" />
<glyph unicode="&#xe905;" glyph-name="system_accessibility_gesture_grab" d="M213.333 701.087c0 104.407 91.586 185.164 195.197 172.228v0l382.349-47.231c119.131-14.874 203.654-123.42 188.756-242.46v0l-65.691-524.922c-2.672-21.349-20.821-37.368-42.336-37.368v0h-611.547c-12.953 0-25.205 5.884-33.302 15.994v0l-117.295 146.449c-43.239 53.986-66.797 121.067-66.797 190.257v0l0.176 157.022c0 71.769 58.228 129.929 130.030 129.929v0l40.546 0.008zM398.014 788.632c-52.764 6.588-99.347-34.487-99.347-87.454v0l0.176-82.769c0.003-1.21-0.045-2.409-0.142-3.594l-0.034-167.164c0-23.564-19.103-42.667-42.667-42.667-21.881 0-39.915 16.471-42.38 37.691l-0.287 4.976-0.043 128.019-40.418-0.019c-23.050 0-42.010-17.402-44.435-39.777l-0.262-4.866-0.176-157.022c0-49.747 16.951-98.014 48.068-136.865v0l104.465-130.455h553.387l61.043 487.553c8.718 69.666-38.689 133.436-106.934 145.998v0l-7.667 1.183z" />
<glyph unicode="&#xe906;" glyph-name="system_accessibility_gesture_pinch" d="M618.788 704c60.699 0 106.535-48.015 106.535-102.938v0l-0.033-101.99 160.417-38.089c60.761-16.438 101.085-73.825 95.066-135.778v0l-0.946-7.454-45.747-302.764c-3.153-20.866-21.085-36.292-42.188-36.292v0h-349.719c-11.615 0-22.727 4.735-30.773 13.112v0l-184.715 192.333c-44.054 47.431-34.686 129.808 18.022 164.268 28.772 18.811 65.47 23.974 96.479 13.245v0l5.536-2.365 65.32-33.528 0.010 278.359c0 56.092 45.37 96.538 99.877 99.684v0zM618.788 618.667c-13.316 0-21.402-6.809-21.402-14.548v0-348.239c0-31.917-33.761-52.534-62.154-37.956v0l-123.584 63.463-2.085 0.387c-4.071 0.375-9.055-0.417-13.689-2.403v0l-4.47-2.385c-8.159-5.334-10.491-25.839-2.683-34.254v0l171.62-178.689h294.827l40.321 266.695c3.246 20.691-9.461 40.577-30.728 47.408v0l-5.056 1.339-186.889 44.298c-19.24 4.56-32.826 21.743-32.826 41.516v0 135.763c0 8.658-8.54 17.604-21.202 17.604zM384 917.333c44.986 0 81.842-34.811 85.099-78.965l0.234-6.369v-128c0-23.564-19.103-42.667-42.667-42.667-21.881 0-39.915 16.471-42.38 37.691l-0.287 4.976v68.565l-195.84-196.565h67.84c23.564 0 42.667-19.103 42.667-42.667 0-21.881-16.471-39.915-37.691-42.38l-4.976-0.287h-128c-44.986 0-81.842 34.811-85.099 78.965l-0.234 6.369v128c0 23.564 19.103 42.667 42.667 42.667 21.881 0 39.915-16.471 42.38-37.691l0.287-4.976v-67.499l194.773 195.499h-66.773c-23.564 0-42.667 19.103-42.667 42.667 0 21.881 16.471 39.915 37.691 42.38l4.976 0.287h128z" />
<glyph unicode="&#xe907;" glyph-name="system_accessibility_gesture_pointer" d="M256 796.148c0 73.737 73.547 131.749 146.825 119.571 65.735-10.924 109.294-62.422 109.294-124.286v0l-0.034-153.097 298.274-51.191c80.645-14.979 135.509-90.274 127.543-171.863v0l-1.050-8.46-59.011-391.842c-3.144-20.875-21.081-36.313-42.191-36.313v0h-535.663c-11.78 0-23.036 4.87-31.1 13.457v0l-124.618 132.934c-38.17 48.741-58.937 109.219-58.937 171.517v0 115.839c0 66.176 52.861 120.921 118.512 120.921v0h52.154zM341.333 362.667c0-23.564-19.103-42.667-42.667-42.667-21.881 0-39.915 16.471-42.38 37.691l-0.287 4.976v85.342l-52.154-0.008c-16.469 0-30.804-13.535-32.912-31.114l-0.266-4.474v-115.839c0-43.267 14.403-85.213 38.296-116.001v0l109.459-116.573h480.469l53.581 355.53c5.642 37.46-17.083 72.566-51.016 82.185v0l-6.101 1.428-333.115 57.141c-20.482 3.513-35.453 21.272-35.453 42.052v0 189.097c0 20.17-13.415 36.030-37.95 40.107-22.639 3.762-47.503-15.85-47.503-35.392v0-433.482z" />
<glyph unicode="&#xe908;" glyph-name="system_accessibility_gesture_swipe_down" d="M469.285 621.513c0 62.753 59.214 110.156 121.354 101.45 59.009-8.267 92.028-56.102 92.028-104.661v0-111.679l191.775-37.559c67.077-12.515 112.643-75.125 106.308-142.975v0l-0.919-7.558-45.506-303.525c-3.132-20.888-21.074-36.341-42.195-36.341v0h-380.177c-12.236 0-23.883 5.253-31.982 14.425v0l-90.611 102.731c-30.751 39.443-47.469 88.35-47.469 138.715v0 68.102c0 56.468 45.039 102.685 101.155 102.685v0l26.203 0.009zM578.799 638.456c-12.36 1.732-24.181-7.731-24.181-16.942v0l-0.037-257.439 0.085-1.408v-85.333c0-23.564-19.103-42.667-42.667-42.667-21.881 0-39.915 16.471-42.38 37.691l-0.287 4.976v42.667l-26.288-0.009c-7.427 0-13.971-5.762-15.49-13.785l-0.332-3.567v-68.102c0-31.407 10.403-61.838 27.767-84.24v0l76.168-86.255h324.224l40.059 267.142c3.596 23.984-10.579 46.34-32.261 52.905v0l-4.757 1.16-226.616 44.346c-20.025 3.919-34.473 21.467-34.473 41.872v0 146.834c0 9.443-6.2 18.425-18.534 20.153zM158.421 553.245l-5.428 4.985-97.83 97.83c-16.662 16.662-16.662 43.677 0 60.34 15.381 15.381 39.583 16.564 56.32 3.549l4.020-3.549 55.163-55.151v213.419c0 23.564 19.103 42.667 42.667 42.667 21.881 0 39.915-16.471 42.38-37.691l0.287-4.976v-213.419l55.163 55.151c16.662 16.662 43.677 16.662 60.34 0 15.381-15.381 16.564-39.583 3.549-56.32l-3.549-4.020-97.83-97.83c-31.571-31.571-81.725-33.232-115.252-4.985z" />
<glyph unicode="&#xe909;" glyph-name="system_accessibility_gesture_swipe_left" d="M469.285 621.513c0 62.753 59.214 110.156 121.354 101.45 59.009-8.267 92.028-56.102 92.028-104.661v0-111.679l191.775-37.559c67.077-12.515 112.643-75.125 106.308-142.975v0l-0.919-7.558-45.506-303.525c-3.132-20.888-21.074-36.341-42.195-36.341v0h-380.177c-12.236 0-23.883 5.253-31.982 14.425v0l-90.611 102.731c-30.751 39.443-47.469 88.35-47.469 138.715v0 68.102c0 56.468 45.039 102.685 101.155 102.685v0l26.203 0.009zM578.799 638.456c-12.36 1.732-24.181-7.731-24.181-16.942v0l-0.036-258.036 0.084-0.811v-85.333c0-23.564-19.103-42.667-42.667-42.667-21.881 0-39.915 16.471-42.38 37.691l-0.287 4.976-0.042 42.667-26.247-0.009c-7.427 0-13.971-5.762-15.49-13.785l-0.332-3.567v-68.102c0-31.407 10.403-61.838 27.767-84.24v0l76.168-86.255h324.224l40.059 267.142c3.596 23.984-10.579 46.34-32.261 52.905v0l-4.757 1.16-226.616 44.346c-20.025 3.919-34.473 21.467-34.473 41.872v0 146.834c0 9.443-6.2 18.425-18.534 20.153zM225.913 904.837c15.381-15.381 16.564-39.583 3.549-56.32l-3.549-4.020-55.202-55.163h213.29c23.564 0 42.667-19.103 42.667-42.667 0-21.881-16.471-39.915-37.691-42.38l-4.976-0.287h-213.29l55.202-55.163c16.662-16.662 16.662-43.677 0-60.34-15.381-15.381-39.583-16.564-56.32-3.549l-4.020 3.549-97.83 97.83c-15.295 15.295-23.57 34.952-24.825 54.967-0.179 1.765-0.292 3.556-0.292 5.373s0.114 3.608 0.334 5.365c1.069 17.727 7.683 35.166 19.799 49.547l4.985 5.428 97.83 97.83c16.662 16.662 43.677 16.662 60.34 0z" />
<glyph unicode="&#xe90a;" glyph-name="system_accessibility_gesture_swipe_right" d="M469.285 621.513c0 62.753 59.214 110.156 121.354 101.45 59.009-8.267 92.028-56.102 92.028-104.661v0-111.679l191.775-37.559c67.077-12.515 112.643-75.125 106.308-142.975v0l-0.919-7.558-45.506-303.525c-3.132-20.888-21.074-36.341-42.195-36.341v0h-380.177c-12.236 0-23.883 5.253-31.982 14.425v0l-90.611 102.731c-30.751 39.443-47.469 88.35-47.469 138.715v0 68.102c0 56.468 45.039 102.685 101.155 102.685v0l26.203 0.009zM578.799 638.456c-12.36 1.732-24.181-7.731-24.181-16.942v0l-0.036-258.036 0.084-0.811v-85.333c0-23.564-19.103-42.667-42.667-42.667-21.881 0-39.915 16.471-42.38 37.691l-0.287 4.976-0.042 42.667-26.247-0.009c-7.427 0-13.971-5.762-15.49-13.785l-0.332-3.567v-68.102c0-31.407 10.403-61.838 27.767-84.24v0l76.168-86.255h324.224l40.059 267.142c3.596 23.984-10.579 46.34-32.261 52.905v0l-4.757 1.16-226.616 44.346c-20.025 3.919-34.473 21.467-34.473 41.872v0 146.834c0 9.443-6.2 18.425-18.534 20.153zM299.895 908.386l4.020-3.549 97.83-97.83c31.571-31.571 33.232-81.725 4.985-115.252l-4.985-5.428-97.83-97.83c-16.662-16.662-43.677-16.662-60.34 0-15.381 15.381-16.564 39.583-3.549 56.32l3.549 4.020 55.093 55.163h-213.376c-23.564 0-42.667 19.103-42.667 42.667 0 21.881 16.471 39.915 37.691 42.38l4.976 0.287h213.376l-55.093 55.163c-15.381 15.381-16.564 39.583-3.549 56.32l3.549 4.020c15.381 15.381 39.583 16.564 56.32 3.549z" />
<glyph unicode="&#xe90b;" glyph-name="system_accessibility_gesture_swipe_up" d="M469.285 621.513c0 62.753 59.214 110.156 121.354 101.45 59.009-8.267 92.028-56.102 92.028-104.661v0-111.679l191.775-37.559c67.077-12.515 112.643-75.125 106.308-142.975v0l-0.919-7.558-45.506-303.525c-3.132-20.888-21.074-36.341-42.195-36.341v0h-380.177c-12.236 0-23.883 5.253-31.982 14.425v0l-90.611 102.731c-30.751 39.443-47.469 88.35-47.469 138.715v0 68.102c0 56.468 45.039 102.685 101.155 102.685v0l26.203 0.009zM578.799 638.456c-12.36 1.732-24.181-7.731-24.181-16.942v0l-0.037-257.439 0.085-1.408v-85.333c0-23.564-19.103-42.667-42.667-42.667-21.881 0-39.915 16.471-42.38 37.691l-0.287 4.976v42.667l-26.288-0.009c-7.427 0-13.971-5.762-15.49-13.785l-0.332-3.567v-68.102c0-31.407 10.403-61.838 27.767-84.24v0l76.168-86.255h324.224l40.059 267.142c3.596 23.984-10.579 46.34-32.261 52.905v0l-4.757 1.16-226.616 44.346c-20.025 3.919-34.473 21.467-34.473 41.872v0 146.834c0 9.443-6.2 18.425-18.534 20.153zM216.995 917.136l-3.661 0.197c1.817 0 3.608-0.114 5.365-0.334 17.727-1.064 35.166-7.678 49.547-19.794l5.428-4.985 97.83-97.83c16.662-16.662 16.662-43.677 0-60.34-15.381-15.381-39.583-16.564-56.32-3.549l-4.020 3.549-55.163 55.197v-213.248c0-23.564-19.103-42.667-42.667-42.667-21.881 0-39.915 16.471-42.38 37.691l-0.287 4.976v213.248l-55.163-55.197c-16.662-16.662-43.677-16.662-60.34 0-15.381 15.381-16.564 39.583-3.549 56.32l3.549 4.020 97.83 97.83c15.295 15.295 34.952 23.57 54.967 24.825 0.569 0.024 1.133 0.083 1.7 0.131 0.125-0.036 0.239-0.032 0.354-0.027 0.857 0.131 2.082 0.183 3.319 0.183l3.319-0.183c0.114-0.004 0.228-0.009 0.342-0.014z" />
<glyph unicode="&#xe90c;" glyph-name="system_accessibility_gesture_tap" d="M384 277.333c0-23.564-19.103-42.667-42.667-42.667-21.881 0-39.915 16.471-42.38 37.691l-0.287 4.976v85.333h-52.154c-16.469 0-30.804-13.535-32.912-31.114l-0.266-4.474v-115.839c0-43.267 14.403-85.213 38.296-116.001 18.124-19.297 23.729-23.552 46.975-36.92 20.427-11.748 27.463-37.83 15.715-58.257s-37.83-27.463-58.257-15.715c-30.107 17.314-42.317 26.582-69.126 55.377-35.626 45.492-56.091 101.207-58.661 159.084l-0.276 12.432v115.839c0 63.725 49.018 116.85 111.272 120.698l7.24 0.223h52.154v262.815c0 73.737 73.547 131.749 146.825 119.571 62.996-10.469 105.626-58.201 109.069-116.609l0.225-7.677-0.034-197.812 212.941-49.143c80.645-14.979 135.509-90.274 127.543-171.863l-1.050-8.46c-13.714-91.065-27.517-179.184-41.41-264.357-3.793-23.257-25.722-39.035-48.979-35.242s-39.035 25.722-35.242 48.979l16.561 103.206c8.26 52.311 16.489 105.685 24.687 160.122 5.659 37.576-17.223 72.784-53.35 82.679l-253.923 58.552c-17.749 4.093-30.754 18.92-32.798 36.669l-0.281 4.907v231.763c0 20.17-13.415 36.030-37.95 40.107-21.13 3.511-44.197-13.339-47.179-31.49l-0.323-3.902v-433.482zM298.667 917.333c23.564 0 42.667-19.103 42.667-42.667 0-21.881-16.471-39.915-37.691-42.38l-4.976-0.287h-85.333v-85.333c0-23.564-19.103-42.667-42.667-42.667-21.881 0-39.915 16.471-42.38 37.691l-0.287 4.976v85.333c0 44.986 34.811 81.842 78.965 85.099l6.369 0.234h85.333zM640 917.333c44.986 0 81.842-34.811 85.099-78.965l0.234-6.369v-85.333c0-23.564-19.103-42.667-42.667-42.667-21.881 0-39.915 16.471-42.38 37.691l-0.287 4.976v85.333h-85.333c-23.564 0-42.667 19.103-42.667 42.667 0 21.881 16.471 39.915 37.691 42.38l4.976 0.287h85.333z" />
<glyph unicode="&#xe90d;" glyph-name="system_accessibility_person" d="M936.542 631.963c7.343-22.391-4.855-46.495-27.245-53.838-75.424-24.737-150.928-42.432-226.484-53.071l-0.014-503.746c0-23.564-19.103-42.667-42.667-42.667-21.881 0-39.915 16.471-42.38 37.691l-0.287 4.976-0.015 221.168c-25.445-4.962-53.911-7.787-85.45-7.787-31.99 0-60.515 2.909-85.484 7.949l0.019-221.33c0-23.564-19.103-42.667-42.667-42.667-21.881 0-39.915 16.471-42.38 37.691l-0.287 4.976 0.028 503.74c-75.57 10.638-151.088 28.336-226.527 53.077-22.391 7.343-34.589 31.448-27.245 53.838s31.448 34.589 53.838 27.245c123.763-40.59 247.28-60.846 370.703-60.846s246.941 20.255 370.703 60.846c22.391 7.343 46.495-4.855 53.838-27.245zM512 513.030c-28.491 0-56.977 1.003-85.457 3.009l-0.089-185.718c2.518-0.699 5.388-1.443 8.61-2.209 21.133-5.020 46.785-8.091 76.936-8.091 30.223 0 56.416 3.089 78.398 8.156l7.052 1.807 0.017 186.055c-28.483-2.006-56.973-3.010-85.467-3.010zM512 917.333c70.902 0 128-58.395 128-129.939 0-72.979-57.011-147.394-128-147.394s-128 74.415-128 147.394c0 71.544 57.098 129.939 128 129.939zM512 832c-23.34 0-42.667-19.766-42.667-44.606 0-30.063 24.514-62.061 42.667-62.061s42.667 31.998 42.667 62.061c0 24.84-19.327 44.606-42.667 44.606z" />
<glyph unicode="&#xe90e;" glyph-name="system_accessibility_screen_reader" d="M655.152 608.61c27.741 23.407 70.181 3.687 70.181-32.61v0-512c0-36.297-42.44-56.016-70.181-32.61v0l-139.782 117.943h-174.037c-21.881 0-39.915 16.471-42.38 37.691v0l-0.287 4.976v256c0 23.564 19.103 42.667 42.667 42.667v0h173.995zM855.020 547.924c78.771-50.475 126.314-136.052 126.314-227.924s-47.543-177.449-126.314-227.924c-19.84-12.713-46.23-6.936-58.944 12.905s-6.936 46.23 12.905 58.944c54.464 34.899 87.020 93.5 87.020 156.076s-32.556 121.176-87.020 156.076c-19.84 12.713-25.618 39.103-12.905 58.944s39.103 25.618 58.944 12.905zM861.091 874.667c63.744 0 116.222-49.003 120.022-111.276l0.22-7.242v-113.778c0-23.564-19.103-42.667-42.667-42.667-21.881 0-39.915 16.471-42.38 37.691l-0.287 4.976v113.778c0 16.717-13.137 30.848-30.488 32.923l-4.421 0.262h-698.182c-17.992 0-32.513-12.845-34.641-29.065l-0.269-4.12v-530.963c0-16.717 13.137-30.848 30.488-32.923l4.421-0.262c23.564 0 42.667-19.103 42.667-42.667s-19.103-42.667-42.667-42.667c-63.744 0-116.222 49.003-120.022 111.276l-0.22 7.242v530.963c0 63.241 50.117 114.586 112.939 118.303l7.303 0.215h698.182zM640 484.224l-81.523-68.834c-7.697-6.494-17.444-10.057-27.514-10.057v0h-146.963v-170.667h146.963c8.057 0 15.906-2.28 22.664-6.517v0l4.85-3.54 81.523-68.791v328.405z" />
<glyph unicode="&#xe90f;" glyph-name="system_accessibility_text_size" d="M896 917.333c21.881 0 39.915-16.471 42.38-37.691l0.287-4.976v-128c0-23.564-19.103-42.667-42.667-42.667-21.881 0-39.915 16.471-42.38 37.691l-0.287 4.976v85.376h-298.667v-768.043h149.333c23.564 0 42.667-19.103 42.667-42.667 0-21.881-16.471-39.915-37.691-42.38l-4.976-0.287h-384c-23.564 0-42.667 19.103-42.667 42.667 0 21.881 16.471 39.915 37.691 42.38l4.976 0.287h149.333v768.043h-298.667v-85.376c0-21.881-16.471-39.915-37.691-42.38l-4.976-0.287c-21.881 0-39.915 16.471-42.38 37.691l-0.287 4.976v128c0 21.881 16.471 39.915 37.691 42.38l4.976 0.287h768zM789.333 597.333c21.881 0 39.915-16.471 42.38-37.691l0.287-4.976v-64h64c23.564 0 42.667-19.103 42.667-42.667 0-21.881-16.471-39.915-37.691-42.38l-4.976-0.287h-64v-64c0-23.564-19.103-42.667-42.667-42.667-21.881 0-39.915 16.471-42.38 37.691l-0.287 4.976v64h-64c-23.564 0-42.667 19.103-42.667 42.667 0 21.881 16.471 39.915 37.691 42.38l4.976 0.287h64v64c0 23.564 19.103 42.667 42.667 42.667zM341.333 490.667c23.564 0 42.667-19.103 42.667-42.667 0-21.881-16.471-39.915-37.691-42.38l-4.976-0.287h-213.333c-23.564 0-42.667 19.103-42.667 42.667 0 21.881 16.471 39.915 37.691 42.38l4.976 0.287h213.333z" />
<glyph unicode="&#xe910;" glyph-name="system_accessibility_tty" d="M298.667 149.333c23.564 0 42.667-19.103 42.667-42.667v0-85.333c0-23.564-19.103-42.667-42.667-42.667v0h-85.333c-23.564 0-42.667 19.103-42.667 42.667v0 85.333c0 23.564 19.103 42.667 42.667 42.667v0zM554.667 149.333c23.564 0 42.667-19.103 42.667-42.667v0-85.333c0-23.564-19.103-42.667-42.667-42.667v0h-85.333c-23.564 0-42.667 19.103-42.667 42.667v0 85.333c0 23.564 19.103 42.667 42.667 42.667v0zM810.667 149.333c23.564 0 42.667-19.103 42.667-42.667v0-85.333c0-23.564-19.103-42.667-42.667-42.667v0h-85.333c-23.564 0-42.667 19.103-42.667 42.667v0 85.333c0 23.564 19.103 42.667 42.667 42.667v0zM170.667 405.333c23.564 0 42.667-19.103 42.667-42.667v0-85.333c0-23.564-19.103-42.667-42.667-42.667v0h-85.333c-23.564 0-42.667 19.103-42.667 42.667v0 85.333c0 23.564 19.103 42.667 42.667 42.667v0zM426.667 405.333c23.564 0 42.667-19.103 42.667-42.667v0-85.333c0-23.564-19.103-42.667-42.667-42.667v0h-85.333c-23.564 0-42.667 19.103-42.667 42.667v0 85.333c0 23.564 19.103 42.667 42.667 42.667v0zM682.667 405.333c23.564 0 42.667-19.103 42.667-42.667v0-85.333c0-23.564-19.103-42.667-42.667-42.667v0h-85.333c-23.564 0-42.667 19.103-42.667 42.667v0 85.333c0 23.564 19.103 42.667 42.667 42.667v0zM938.667 405.333c23.564 0 42.667-19.103 42.667-42.667v0-85.333c0-23.564-19.103-42.667-42.667-42.667v0h-85.333c-23.564 0-42.667 19.103-42.667 42.667v0 85.333c0 23.564 19.103 42.667 42.667 42.667v0zM511.109 917.333c229.834 0 502.755-169.646 467.079-283.351-14.402-45.9-52.777-95.128-114.604-150.294-19.859-17.719-46.847-25.158-74.102-19.883v0l-15.034 3.339c-21.458 5.365-41.494 12.94-60.036 22.745-16.002 8.461-31.91 17.576-47.725 27.343-34.17 21.102-49.002 63.175-35.619 101.037v0l23.525 66.618-25.787 4.631c-31.624 5.115-63.125 8.181-94.513 9.202v0l-23.52 0.383c-39.179 0-78.651-3.194-118.431-9.594v0l-23.018-4.026 19.021-44.279c21.923-51.052 0.921-109.927-47.289-135.928v0l-6.441-3.202-68.14-31.093c-42.419-19.356-92.494-8.918-123.648 25.775-45.673 50.866-76.982 94.663-94.010 132.482-51.853 115.162 228.18 288.095 462.295 288.095zM895.359 656.38l-2.221 4.605c-2.861 5.336-7.435 11.859-13.62 19.088-18.238 21.32-47.162 45.12-82.389 67.017-83.903 52.153-187.125 84.91-286.020 84.91-99.259 0-204.048-32.862-287.878-84.632-35.41-21.867-63.969-45.488-81.185-66.338-7.135-8.641-11.666-16.052-13.449-20.977v0l1.225-2.494c12.622-25.182 35.118-56.591 67.438-93.569v0l9.058-10.222c6.231-6.939 16.247-9.027 24.73-5.156v0l68.14 31.093c10.549 4.814 15.321 17.172 10.746 27.826v0l-39.292 91.5c-10.339 24.077 3.264 51.697 28.653 58.177 71.061 18.136 141.577 27.227 211.477 27.227 69.923 0 140.173-9.096 210.674-27.249 24.248-6.243 37.932-31.927 29.59-55.534v0l-39.513-111.819 14.226-8.571c9.495-5.581 19.012-10.893 28.551-15.937 12.354-6.532 25.945-11.671 39.703-15.127v0l12.768-2.837 9.985 9.064c45.259 41.82 71.788 76.895 80.012 103.104l-1.195-3.315-0.214 0.167z" />
<glyph unicode="&#xe911;" glyph-name="system_accessibility_visually_impaired" d="M111.484 908.386l4.020-3.549 148.991-148.95c72.869 50.623 155.743 76.113 247.506 76.113 204.193 0 360.508-125.053 465.789-366.974 4.869-11.188 4.715-23.926-0.424-34.994l-16.14-34.209c-11.663-24.257-21.261-43.053-28.89-56.541-32.033-56.632-67.745-104.705-107.217-144.098l143.718-143.681c16.662-16.662 16.662-43.677 0-60.34-15.381-15.381-39.583-16.564-56.32-3.549l-4.020 3.549-173.894 173.812c-0.68 0.62-1.343 1.265-1.989 1.935l-123.768 123.801c-2.642 1.686-5.138 3.691-7.433 6.015-2.123 2.149-3.971 4.467-5.544 6.91l-231.456 231.52c-1.129 0.916-2.221 1.898-3.273 2.946l-3.251 3.637-122.538 122.508c-2.928 2.091-5.638 4.59-8.045 7.488l-1.598 2.185-170.543 170.577c-16.662 16.662-16.662 43.677 0 60.34 15.381 15.381 39.583 16.564 56.32 3.549zM154.15 353.719l4.020-3.549 256-256c16.662-16.662 16.662-43.677 0-60.34-15.381-15.381-39.583-16.564-56.32-3.549l-4.020 3.549-256 256c-16.662 16.662-16.662 43.677 0 60.34 15.381 15.381 39.583 16.564 56.32 3.549zM154.15 609.719l4.020-3.549 512-512c16.662-16.662 16.662-43.677 0-60.34-15.381-15.381-39.583-16.564-56.32-3.549l-4.020 3.549-512 512c-16.662 16.662-16.662 43.677 0 60.34 15.381 15.381 39.583 16.564 56.32 3.549zM512 746.667c-68.949 0-130.636-17.347-185.949-52.324l68.455-68.463c34.393 22.82 75.024 35.453 117.494 35.453 117.431 0 213.333-95.903 213.333-213.333 0-42.483-12.642-83.123-35.468-117.516l74.928-74.944c33.758 33.681 64.874 75.558 93.268 125.755l6.253 11.478c5.662 10.713 12.446 24.291 20.317 40.678l7.101 14.977-5.365 11.578c-89.369 188.754-209.457 282.057-362.805 286.496l-11.564 0.166zM512 576c-19.389 0-38.128-4.392-55.087-12.559l170.543-170.496c8.156 16.95 12.544 35.678 12.544 55.055 0 70.303-57.697 128-128 128z" />
<glyph unicode="&#xe912;" glyph-name="system_accessibility_wheelchair" d="M230.119 405.373c20.722-11.251 28.392-37.156 17.132-57.861-15.142-27.841-23.18-59.048-23.18-91.512 0-106.039 86.033-192 192.16-192 30.456 0 64.142 8.733 92.225 23.368 20.91 10.898 46.703 2.795 57.61-18.098s2.797-46.664-18.113-57.562c-39.947-20.819-87.097-33.042-131.721-33.042-153.295 0-277.565 124.166-277.565 277.333 0 46.786 11.642 91.986 33.543 132.255 11.26 20.705 37.187 28.368 57.909 17.117zM443.806 872.104l4.929-2.423 262.861-150.848c40.901-23.472 55.015-75.629 31.523-116.497-1.918-3.336-4.058-6.538-6.406-9.582l-3.675-4.446-104.26-117.77 197.177 15.267c24.602 1.908 45.316-17.256 45.993-41.252l-0.136-4.859-24.97-296.925c-1.975-23.481-22.627-40.917-46.128-38.944-21.822 1.832-38.428 19.755-39.108 41.107l0.131 4.982 20.778 246.974-121.802-9.461c21.106-39.114 33.084-83.871 33.084-131.424 0-47.454-11.978-93.27-34.477-133.957-11.405-20.625-37.385-28.107-58.028-16.711s-28.131 37.354-16.725 57.979c15.556 28.131 23.825 59.763 23.825 92.689 0 106.039-86.033 192-192.16 192-33.161 0-65.009-8.367-93.292-24.097-20.607-11.46-46.61-4.060-58.080 16.53s-4.063 46.571 16.543 58.032c16.973 9.439 34.845 17.049 53.362 22.721l0.588 0.656 185.351 208.108-87.622 50.295-124.536-112.795c-16.133-14.605-40.384-14.595-56.474-0.772l-3.843 3.743c-14.617 16.119-14.607 40.35-0.773 56.427l3.746 3.84 147.593 133.613c12.347 11.178 29.917 14.055 45.011 7.803zM596.352 686.558l-139.1-156.232c30.57-4.525 59.515-14.029 85.983-27.662l125.826 142.172-72.709 41.723zM725.352 873.038c23.971 41.519 76.516 57.123 117.826 33.272s54.070-77.158 30.099-118.677c-24.024-41.611-86.44-70.624-129.34-45.856-44.631 25.768-43.464 88.168-18.585 131.26z" />
<glyph unicode="&#xe913;" glyph-name="system_banking_agency" d="M768 63.211c23.564 0 42.667-19.103 42.667-42.667 0-21.881-16.471-39.915-37.691-42.38l-4.976-0.287h-682.667c-23.564 0-42.667 19.103-42.667 42.667 0 21.881 16.471 39.915 37.691 42.38l4.976 0.287h682.667zM170.667 362.667c21.881 0 39.915-16.471 42.38-37.691l0.287-4.976v-170.667c0-23.564-19.103-42.667-42.667-42.667-21.881 0-39.915 16.471-42.38 37.691l-0.287 4.976v170.667c0 23.564 19.103 42.667 42.667 42.667zM341.161 362.667c21.881 0 39.915-16.471 42.38-37.691l0.287-4.976v-170.667c0-23.564-19.103-42.667-42.667-42.667-21.881 0-39.915 16.471-42.38 37.691l-0.287 4.976v170.667c0 23.564 19.103 42.667 42.667 42.667zM512.172 362.667c21.881 0 39.915-16.471 42.38-37.691l0.287-4.976v-170.667c0-23.564-19.103-42.667-42.667-42.667-21.881 0-39.915 16.471-42.38 37.691l-0.287 4.976v170.667c0 23.564 19.103 42.667 42.667 42.667zM682.667 362.667c21.881 0 39.915-16.471 42.38-37.691l0.287-4.976v-170.667c0-23.564-19.103-42.667-42.667-42.667-21.881 0-39.915 16.471-42.38 37.691l-0.287 4.976v170.667c0 23.564 19.103 42.667 42.667 42.667zM507.211 766.307c10.072-19.425 3.751-43.017-13.952-54.972l-4.285-2.545-360.974-187.146v-30.976h426.839c21.881 0 39.915-16.471 42.38-37.691l0.287-4.976c0-21.881-16.471-39.915-37.691-42.38l-4.976-0.287h-469.506c-21.881 0-39.915 16.471-42.38 37.691l-0.287 4.976v99.556c0 14.165 7.016 27.28 18.511 35.171l4.515 2.706 384 199.111c20.919 10.847 46.671 2.682 57.518-18.237zM766.574 917.31c55.81 1.866 110.023-18.806 150.422-57.357s63.585-91.737 64.337-148.145c0-34.842-13.474-72.65-37.426-114.14-15.303-26.508-34.695-54.071-57.257-82.273-19.487-24.358-40.268-47.876-61.048-69.754-7.278-7.663-14.050-14.587-20.152-20.668v0l-7.995-7.84c-16.486-15.732-42.425-15.732-58.911 0v0l-14.314 14.198-13.833 14.31c-20.78 21.878-41.561 45.396-61.048 69.754-22.562 28.202-41.954 55.765-57.257 82.273-23.952 41.49-37.422 79.298-37.422 114.712 0.748 55.836 23.934 109.023 64.333 147.574s94.612 59.222 147.571 57.357zM775.429 832.024h-8.855l-8.943-0.027c-29.695-1.175-58.071-13.123-79.717-33.779-23.811-22.722-37.477-54.071-37.914-86.409 0-16.939 8.855-41.786 25.995-71.477 12.921-22.383 29.922-46.545 49.988-71.629 17.847-22.308 37.065-44.058 56.286-64.294v0l-4.269 4.648 10.124 10.797c9.567 10.467 19.048 21.252 28.271 32.237v0l13.621 16.612c20.067 25.084 37.067 49.246 49.988 71.629 17.14 29.691 25.995 54.539 25.999 70.906-0.441 32.91-14.107 64.259-37.918 86.981s-55.765 34.906-91.511 33.806zM768 746.667c23.564 0 42.667-19.103 42.667-42.667s-19.103-42.667-42.667-42.667c-23.564 0-42.667 19.103-42.667 42.667s19.103 42.667 42.667 42.667z" />
<glyph unicode="&#xe914;" glyph-name="system_banking_atm" d="M810.667 746.667c23.564 0 42.667-19.103 42.667-42.667v0-606.815c0-65.323-52.364-118.519-117.333-118.519v0h-448c-64.969 0-117.333 53.195-117.333 118.519v0 606.815c0 23.564 19.103 42.667 42.667 42.667v0zM597.291 661.333h-341.291v-564.148c0-16.952 12.153-30.71 27.686-32.885v0l4.314-0.3h309.291v597.333zM768 661.333h-85.376v-597.333h53.376c16.076 0 29.568 12.345 31.705 28.647l0.295 4.538v564.148zM469.333 405.333c21.881 0 39.915-16.471 42.38-37.691l0.287-4.976v-170.667c0-23.564-19.103-42.667-42.667-42.667-21.881 0-39.915 16.471-42.38 37.691l-0.287 4.976v170.667c0 23.564 19.103 42.667 42.667 42.667zM853.333 917.333c68.168 0 123.89-53.287 127.783-120.479l0.217-7.521v-85.333c0-23.564-19.103-42.667-42.667-42.667-21.881 0-39.915 16.471-42.38 37.691l-0.287 4.976v85.333c0 21.881-16.471 39.915-37.691 42.38l-4.976 0.287h-682.667c-21.881 0-39.915-16.471-42.38-37.691l-0.287-4.976v-85.333c0-23.564-19.103-42.667-42.667-42.667-21.881 0-39.915 16.471-42.38 37.691l-0.287 4.976v85.333c0 68.168 53.287 123.89 120.479 127.783l7.521 0.217h682.667z" />
<glyph unicode="&#xe915;" glyph-name="system_banking_bank_documentation" d="M810.667 917.333c70.692 0 128-57.308 128-128v0-682.667c0-70.692-57.308-128-128-128v0h-597.333c-70.692 0-128 57.308-128 128v0 682.667c0 70.692 57.308 128 128 128v0zM810.667 832h-597.333c-23.564 0-42.667-19.103-42.667-42.667v0-682.667c0-23.564 19.103-42.667 42.667-42.667v0h597.333c23.564 0 42.667 19.103 42.667 42.667v0 682.667c0 23.564-19.103 42.667-42.667 42.667v0zM512 192c23.564 0 42.667-19.103 42.667-42.667 0-21.881-16.471-39.915-37.691-42.38l-4.976-0.287h-213.333c-23.564 0-42.667 19.103-42.667 42.667 0 21.881 16.471 39.915 37.691 42.38l4.976 0.287h213.333zM725.333 320c23.564 0 42.667-19.103 42.667-42.667 0-21.881-16.471-39.915-37.691-42.38l-4.976-0.287h-426.667c-23.564 0-42.667 19.103-42.667 42.667 0 21.881 16.471 39.915 37.691 42.38l4.976 0.287h426.667zM490.048 783.253c13.512 8.107 30.392 8.107 43.904 0v0l213.333-128c12.851-7.711 20.715-21.599 20.715-36.586v0-42.667c0-23.564-19.103-42.667-42.667-42.667v0-128c0-23.564-19.103-42.667-42.667-42.667-21.881 0-39.915 16.471-42.38 37.691l-0.287 4.976v128h-85.333v-128c0-23.564-19.103-42.667-42.667-42.667-21.881 0-39.915 16.471-42.38 37.691l-0.287 4.976v128h-85.333v-128c0-23.564-19.103-42.667-42.667-42.667-21.881 0-39.915 16.471-42.38 37.691l-0.287 4.976v128c-23.564 0-42.667 19.103-42.667 42.667v0 42.667c0 14.987 7.863 28.876 20.715 36.586v0zM512 696.917l-130.475-78.251h260.907l-130.432 78.251z" />
<glyph unicode="&#xe916;" glyph-name="system_banking_bank_draft" d="M577.83 862.17c16.662 16.662 43.677 16.662 60.34 0v0l117.333-117.333c16.662-16.662 16.662-43.677 0-60.34v0l-352-352c-8.002-8.002-18.854-12.497-30.17-12.497v0h-117.333c-23.564 0-42.667 19.103-42.667 42.667v0 85.376h-85.333v-341.333h768v341.333l-170.667-0.043c-21.881 0-39.915 16.471-42.38 37.691l-0.287 4.976c0 21.881 16.471 39.915 37.691 42.38l4.976 0.287h213.333c21.881 0 39.915-16.471 42.38-37.691l0.287-4.976v-426.667c0-21.881-16.471-39.915-37.691-42.38l-4.976-0.287h-853.333c-21.881 0-39.915 16.471-42.38 37.691l-0.287 4.976v426.667c0 21.881 16.471 39.915 37.691 42.38l4.976 0.287 163.627 0.043zM768 277.333c23.564 0 42.667-19.103 42.667-42.667 0-21.881-16.471-39.915-37.691-42.38l-4.976-0.287h-512c-23.564 0-42.667 19.103-42.667 42.667 0 21.881 16.471 39.915 37.691 42.38l4.976 0.287h512zM608 771.627l-309.333-309.291v-56.96h56.96l309.333 309.291-56.96 56.96z" />
<glyph unicode="&#xe917;" glyph-name="system_banking_bank_statement" d="M810.667 917.333c70.692 0 128-57.308 128-128v0-768c0-34.078-37.98-54.404-66.334-35.501v0l-104.333 69.549-104.333-69.549c-12.739-8.493-28.907-9.437-42.408-2.831v0l-4.926 2.831-104.333 69.549-104.333-69.549c-12.739-8.493-28.907-9.437-42.408-2.831v0l-4.926 2.831-104.333 69.549-104.333-69.549c-27.004-18.003-62.739-0.424-66.081 30.729v0l-0.253 4.772v768c0 70.692 57.308 128 128 128v0zM810.667 832h-597.333c-23.564 0-42.667-19.103-42.667-42.667v0-688.213l61.666 41.047c12.739 8.493 28.907 9.437 42.408 2.831v0l4.926-2.831 104.333-69.506 104.333 69.506c12.739 8.493 28.907 9.437 42.408 2.831v0l4.926-2.831 104.333-69.506 104.333 69.506c12.739 8.493 28.907 9.437 42.408 2.831v0l4.926-2.831 61.666-41.090v688.256c0 21.881-16.471 39.915-37.691 42.38v0l-4.976 0.287zM512 362.667c23.564 0 42.667-19.103 42.667-42.667 0-21.881-16.471-39.915-37.691-42.38l-4.976-0.287h-213.333c-23.564 0-42.667 19.103-42.667 42.667 0 21.881 16.471 39.915 37.691 42.38l4.976 0.287h213.333zM725.333 362.667c23.564 0 42.667-19.103 42.667-42.667 0-21.881-16.471-39.915-37.691-42.38l-4.976-0.287h-42.667c-23.564 0-42.667 19.103-42.667 42.667 0 21.881 16.471 39.915 37.691 42.38l4.976 0.287h42.667zM512 533.333c23.564 0 42.667-19.103 42.667-42.667 0-21.881-16.471-39.915-37.691-42.38l-4.976-0.287h-213.333c-23.564 0-42.667 19.103-42.667 42.667 0 21.881 16.471 39.915 37.691 42.38l4.976 0.287h213.333zM725.333 533.333c23.564 0 42.667-19.103 42.667-42.667 0-21.881-16.471-39.915-37.691-42.38l-4.976-0.287h-42.667c-23.564 0-42.667 19.103-42.667 42.667 0 21.881 16.471 39.915 37.691 42.38l4.976 0.287h42.667zM512 704c23.564 0 42.667-19.103 42.667-42.667 0-21.881-16.471-39.915-37.691-42.38l-4.976-0.287h-213.333c-23.564 0-42.667 19.103-42.667 42.667 0 21.881 16.471 39.915 37.691 42.38l4.976 0.287h213.333zM725.333 704c23.564 0 42.667-19.103 42.667-42.667 0-21.881-16.471-39.915-37.691-42.38l-4.976-0.287h-42.667c-23.564 0-42.667 19.103-42.667 42.667 0 21.881 16.471 39.915 37.691 42.38l4.976 0.287h42.667z" />
<glyph unicode="&#xe918;" glyph-name="system_banking_bank_values" d="M730.314 917.333c28.853 0 48.876-27.801 40.978-54.589l-1.687-4.711-79.85-188.486c122.88-94.726 206.245-267.488 206.245-431.936 0-181.025-144.798-258.944-384.023-258.944-239.184 0-383.977 77.924-383.977 258.944 0 164.598 83.523 337.55 206.579 432.251l-80.143 188.078c-11.328 26.581 6.463 55.932 34.248 59.111l5.003 0.283h436.628zM613.834 618.672l-203.807-0.005-0.526-0.352c-113.367-72.235-196.167-231.749-196.167-380.704 0-119.612 100.337-173.611 298.644-173.611 198.348 0 298.689 53.996 298.689 173.611 0 149.248-83.12 309.065-196.833 381.061zM512 554.667c21.881 0 39.915-16.471 42.38-37.691l0.287-4.976v-21.333h42.667c23.564 0 42.667-19.103 42.667-42.667 0-21.881-16.471-39.915-37.691-42.38l-4.976-0.287h-116.545c-6.466 0-11.455-4.917-11.455-10.667 0-4.928 3.666-9.245 8.785-10.378l2.67-0.289h62.423c53.816 0 96.788-42.844 96.788-97.197 0-49.613-39.57-88.434-85.296-94.092l-0.037-23.374c0-23.564-19.103-42.667-42.667-42.667-21.881 0-39.915 16.471-42.38 37.691l-0.287 4.976v22.663h-42.667c-23.564 0-42.667 19.103-42.667 42.667 0 21.881 16.471 39.915 37.691 42.38l4.976 0.287h116.545c5.413 0 11.455 5.347 11.455 9.47 0 6.144-3.461 10.471-8.697 11.583l-2.758 0.281h-62.423c-53.316 0-96.788 42.839-96.788 96 0 49.3 37.388 89.723 85.341 95.335l-0.007 21.999c0 23.564 19.103 42.667 42.667 42.667zM665.899 832h-307.627l54.528-128h198.912l54.187 128z" />
<glyph unicode="&#xe919;" glyph-name="system_banking_bank" d="M938.667 64c23.564 0 42.667-19.103 42.667-42.667 0-21.881-16.471-39.915-37.691-42.38l-4.976-0.287h-853.333c-23.564 0-42.667 19.103-42.667 42.667 0 21.881 16.471 39.915 37.691 42.38l4.976 0.287h853.333zM170.695 448c21.881 0 39.915-16.471 42.38-37.691l0.287-4.976v-256c0-23.564-19.103-42.667-42.667-42.667-21.881 0-39.915 16.471-42.38 37.691l-0.287 4.976v256c0 23.564 19.103 42.667 42.667 42.667zM384 448c21.881 0 39.915-16.471 42.38-37.691l0.287-4.976v-256c0-23.564-19.103-42.667-42.667-42.667-21.881 0-39.915 16.471-42.38 37.691l-0.287 4.976v256c0 23.564 19.103 42.667 42.667 42.667zM640 448c21.881 0 39.915-16.471 42.38-37.691l0.287-4.976v-256c0-23.564-19.103-42.667-42.667-42.667-21.881 0-39.915 16.471-42.38 37.691l-0.287 4.976v256c0 23.564 19.103 42.667 42.667 42.667zM853.333 448c21.881 0 39.915-16.471 42.38-37.691l0.287-4.976v-256c0-23.564-19.103-42.667-42.667-42.667-21.881 0-39.915 16.471-42.38 37.691l-0.287 4.976v256c0 23.564 19.103 42.667 42.667 42.667zM491.922 912.314c12.549 6.693 27.608 6.693 40.157 0v0l426.667-227.556c13.904-7.415 22.588-21.89 22.588-37.647v0-113.778c0-23.564-19.103-42.667-42.667-42.667v0h-853.333c-23.564 0-42.667 19.103-42.667 42.667v0 113.778c0 15.757 8.685 30.232 22.588 37.647v0zM512 826.325l-384.043-204.8v-45.525h768v45.568l-383.957 204.757zM512 746.667c23.564 0 42.667-19.103 42.667-42.667s-19.103-42.667-42.667-42.667c-23.564 0-42.667 19.103-42.667 42.667s19.103 42.667 42.667 42.667z" />
<glyph unicode="&#xe91a;" glyph-name="system_banking_bill_invoice" d="M810.667 917.333c70.692 0 128-57.308 128-128v0-768c0-34.078-37.98-54.404-66.334-35.501v0l-104.333 69.549-104.333-69.549c-12.739-8.493-28.907-9.437-42.408-2.831v0l-4.926 2.831-104.333 69.549-104.333-69.549c-12.739-8.493-28.907-9.437-42.408-2.831v0l-4.926 2.831-104.333 69.549-104.333-69.549c-27.004-18.003-62.739-0.424-66.081 30.729v0l-0.253 4.772v768c0 70.692 57.308 128 128 128v0zM810.667 832h-597.333c-23.564 0-42.667-19.103-42.667-42.667v0-688.213l61.666 41.047c12.739 8.493 28.907 9.437 42.408 2.831v0l4.926-2.831 104.333-69.506 104.333 69.506c12.739 8.493 28.907 9.437 42.408 2.831v0l4.926-2.831 104.333-69.506 104.333 69.506c12.739 8.493 28.907 9.437 42.408 2.831v0l4.926-2.831 61.666-41.090v688.256c0 21.881-16.471 39.915-37.691 42.38v0l-4.976 0.287zM512 320c23.564 0 42.667-19.103 42.667-42.667 0-21.881-16.471-39.915-37.691-42.38l-4.976-0.287h-213.333c-23.564 0-42.667 19.103-42.667 42.667 0 21.881 16.471 39.915 37.691 42.38l4.976 0.287h213.333zM725.333 320c23.564 0 42.667-19.103 42.667-42.667 0-21.881-16.471-39.915-37.691-42.38l-4.976-0.287h-42.667c-23.564 0-42.667 19.103-42.667 42.667 0 21.881 16.471 39.915 37.691 42.38l4.976 0.287h42.667zM512 746.667c94.257 0 170.667-76.41 170.667-170.667s-76.41-170.667-170.667-170.667c-94.257 0-170.667 76.41-170.667 170.667s76.41 170.667 170.667 170.667zM512 661.333c-47.128 0-85.333-38.205-85.333-85.333s38.205-85.333 85.333-85.333c47.128 0 85.333 38.205 85.333 85.333s-38.205 85.333-85.333 85.333z" />
<glyph unicode="&#xe91b;" glyph-name="system_banking_bill_payment" d="M85.333 234.671c21.881 0 39.915-16.471 42.38-37.691l0.287-4.976v-128h128c23.564 0 42.667-19.103 42.667-42.667 0-21.881-16.471-39.915-37.691-42.38l-4.976-0.287h-128c-44.986 0-81.842 34.811-85.099 78.965l-0.234 6.369v128c0 23.564 19.103 42.667 42.667 42.667zM938.663 234.671c21.881 0 39.915-16.471 42.38-37.691l0.287-4.976v-128c0-44.986-34.811-81.842-78.965-85.099l-6.369-0.234h-128c-23.564 0-42.667 19.103-42.667 42.667 0 21.881 16.471 39.915 37.691 42.38l4.976 0.287h128v128c0 23.564 19.103 42.667 42.667 42.667zM810.667 661.333c21.881 0 39.915-16.471 42.38-37.691l0.287-4.976v-341.333c0-23.564-19.103-42.667-42.667-42.667-21.881 0-39.915 16.471-42.38 37.691l-0.287 4.976v341.333c0 23.564 19.103 42.667 42.667 42.667zM682.667 661.333c21.881 0 39.915-16.471 42.38-37.691l0.287-4.976v-341.333c0-23.564-19.103-42.667-42.667-42.667-21.881 0-39.915 16.471-42.38 37.691l-0.287 4.976v341.333c0 23.564 19.103 42.667 42.667 42.667zM554.667 661.333c21.881 0 39.915-16.471 42.38-37.691l0.287-4.976v-341.333c0-23.564-19.103-42.667-42.667-42.667-21.881 0-39.915 16.471-42.38 37.691l-0.287 4.976v341.333c0 23.564 19.103 42.667 42.667 42.667zM341.333 661.333c21.881 0 39.915-16.471 42.38-37.691l0.287-4.976v-341.333c0-23.564-19.103-42.667-42.667-42.667-21.881 0-39.915 16.471-42.38 37.691l-0.287 4.976v341.333c0 23.564 19.103 42.667 42.667 42.667zM213.333 661.333c21.881 0 39.915-16.471 42.38-37.691l0.287-4.976v-341.333c0-23.564-19.103-42.667-42.667-42.667-21.881 0-39.915 16.471-42.38 37.691l-0.287 4.976v341.333c0 23.564 19.103 42.667 42.667 42.667zM256 917.333c23.564 0 42.667-19.103 42.667-42.667 0-21.881-16.471-39.915-37.691-42.38l-4.976-0.287h-128v-128c0-23.564-19.103-42.667-42.667-42.667-21.881 0-39.915 16.471-42.38 37.691l-0.287 4.976v128c0 44.986 34.811 81.842 78.965 85.099l6.369 0.234h128zM896 917.333c44.986 0 81.842-34.811 85.099-78.965l0.234-6.369v-128c0-23.564-19.103-42.667-42.667-42.667-21.881 0-39.915 16.471-42.38 37.691l-0.287 4.976v128h-128c-23.564 0-42.667 19.103-42.667 42.667 0 21.881 16.471 39.915 37.691 42.38l4.976 0.287h128z" />
<glyph unicode="&#xe91c;" glyph-name="system_banking_bitcoin" d="M426.667 21.503c0-23.564-19.103-42.667-42.667-42.667-21.881 0-39.915 16.471-42.38 37.691l-0.287 4.976v85.165l-85.333-0.001c-23.564 0-42.667 19.103-42.667 42.667 0 21.881 16.471 39.915 37.691 42.38l4.976 0.287 85.333 0.001v512l-85.164-0.001c-23.564 0-42.667 19.103-42.667 42.667 0 21.881 16.471 39.915 37.691 42.38l4.976 0.287 85.164 0.001v85.163c0 23.564 19.103 42.667 42.667 42.667 21.881 0 39.915-16.471 42.38-37.691l0.287-4.976v-85.163h128v85.163c0 23.564 19.103 42.667 42.667 42.667 21.881 0 39.915-16.471 42.38-37.691l0.287-4.976 0.043-93.718c68.235-23.927 115.981-95.425 115.981-181.016 0-48.209-15.049-92.764-40.268-127.025v0l-3.053-3.96 6.396-3.774c52.362-32.524 88.33-92.493 91.359-159.595v0l0.207-9.193c0-100.712-74.985-183.984-170.644-189.283l-0.023-85.432c0-23.564-19.103-42.667-42.667-42.667-21.881 0-39.915 16.471-42.38 37.691l-0.287 4.976v85.165h-128v-85.165zM630.329 405.333l-203.662 0.001v-213.335h203.662c51.83 0 95.004 46.064 95.004 104.217 0 59.473-44.48 109.116-95.004 109.116v0zM589.474 704h-162.808v-213.332l162.808-0.001 5.296 0.242c40.407 3.694 75.922 49.265 75.922 108.855 0 60.932-37.354 104.236-81.217 104.236v0z" />
<glyph unicode="&#xe91d;" glyph-name="system_banking_budget_euro_fill" d="M512 917.333c259.206 0 469.333-210.128 469.333-469.333s-210.128-469.333-469.333-469.333c-259.206 0-469.333 210.128-469.333 469.333s210.128 469.333 469.333 469.333zM547.556 725.333c-104.499 0-194.898-60.761-239.88-149.531v0l-73.009 0.024-4.976-0.287c-21.22-2.465-37.691-20.499-37.691-42.38 0-23.564 19.103-42.667 42.667-42.667v0l45.82-0.008c-2.076-13.854-3.153-28.042-3.153-42.485 0-14.785 1.129-29.304 3.303-43.471v0l-45.969-0.003-4.976-0.287c-21.22-2.465-37.691-20.499-37.691-42.38 0-23.564 19.103-42.667 42.667-42.667v0l73.504 0.034c45.147-88.242 135.268-148.56 239.385-148.56 48.306 0 94.837 13.054 135.661 37.446 20.229 12.086 26.83 38.282 14.744 58.511s-38.282 26.83-58.511 14.744c-27.7-16.55-59.127-25.367-91.894-25.367-54.278 0-103.227 24.341-137.104 63.18v0l80.215 0.012 4.976 0.287c21.22 2.465 37.691 20.499 37.691 42.38 0 23.564-19.103 42.667-42.667 42.667v0l-123.25 0.017c-3.107 13.956-4.75 28.502-4.75 43.457 0 14.606 1.567 28.821 4.534 42.478v0l123.466 0.014 4.976 0.287c21.22 2.465 37.691 20.499 37.691 42.38 0 23.564-19.103 42.667-42.667 42.667v0l-81.055 0.024c33.905 39.403 83.215 64.15 137.944 64.15 32.724 0 64.164-8.815 91.888-25.346 20.239-12.069 46.43-5.445 58.498 14.794s5.445 46.43-14.794 58.498c-40.828 24.346-87.346 37.388-135.592 37.388z" />
<glyph unicode="&#xe91e;" glyph-name="system_banking_budget_euro" d="M512 917.333c259.206 0 469.333-210.128 469.333-469.333s-210.128-469.333-469.333-469.333c-259.206 0-469.333 210.128-469.333 469.333s210.128 469.333 469.333 469.333zM512 832c-212.077 0-384-171.923-384-384s171.923-384 384-384c212.077 0 384 171.923 384 384s-171.923 384-384 384zM547.556 725.333c48.246 0 94.764-13.042 135.592-37.388 20.239-12.069 26.863-38.259 14.794-58.498s-38.259-26.863-58.498-14.794c-27.724 16.532-59.164 25.346-91.888 25.346-54.729 0-104.038-24.747-137.944-64.15l81.055-0.024c23.564 0 42.667-19.103 42.667-42.667 0-21.881-16.471-39.915-37.691-42.38l-4.976-0.287-123.466-0.014c-2.967-13.657-4.534-27.873-4.534-42.478 0-14.955 1.643-29.501 4.75-43.457l123.25-0.017c23.564 0 42.667-19.103 42.667-42.667 0-21.881-16.471-39.915-37.691-42.38l-4.976-0.287-80.215-0.012c33.877-38.839 82.825-63.18 137.104-63.18 32.767 0 64.195 8.817 91.894 25.367 20.229 12.086 46.425 5.485 58.511-14.744s5.485-46.425-14.744-58.511c-40.824-24.391-87.355-37.446-135.661-37.446-104.117 0-194.238 60.318-239.385 148.56l-73.504-0.034c-23.564 0-42.667 19.103-42.667 42.667 0 21.881 16.471 39.915 37.691 42.38l4.976 0.287 45.969 0.003c-2.174 14.166-3.303 28.685-3.303 43.471 0 14.442 1.077 28.631 3.153 42.485l-45.82 0.008c-23.564 0-42.667 19.103-42.667 42.667 0 21.881 16.471 39.915 37.691 42.38l4.976 0.287 73.009-0.024c44.981 88.77 135.381 149.531 239.88 149.531z" />
<glyph unicode="&#xe91f;" glyph-name="system_banking_budget_fill" d="M512 917.333c259.206 0 469.333-210.128 469.333-469.333s-210.128-469.333-469.333-469.333c-259.206 0-469.333 210.128-469.333 469.333s210.128 469.333 469.333 469.333zM512 746.667c-23.564 0-42.667-19.103-42.667-42.667v0l-0.043-42.667h-6.449l-7.517-0.217c-67.152-3.894-120.392-59.625-120.392-127.783 0-70.682 57.256-128 127.909-128v0h98.316l4.725-0.247c21.674-2.292 37.851-20.28 37.851-44.335 0-21.646-21.251-40.751-42.575-40.751v0h-183.558l-4.976-0.287c-21.22-2.465-37.691-20.499-37.691-42.38 0-23.564 19.103-42.667 42.667-42.667v0h91.691l0.043-42.667 0.287-4.976c2.465-21.22 20.499-37.691 42.38-37.691 23.564 0 42.667 19.103 42.667 42.667v0l-0.043 42.667h6.534l7.108 0.209c63.744 3.751 120.801 57.49 120.801 125.875 0 72.66-56.531 129.915-127.909 129.915v0h-98.316l-4.963 0.287c-21.167 2.463-37.612 20.489-37.612 42.38 0 23.574 19.072 42.667 42.575 42.667v0h183.558l4.976 0.287c21.22 2.465 37.691 20.499 37.691 42.38 0 23.564-19.103 42.667-42.667 42.667v0h-91.776l0.043 42.667-0.287 4.976c-2.465 21.22-20.499 37.691-42.38 37.691z" />
<glyph unicode="&#xe920;" glyph-name="system_banking_budget_pound_fill" d="M512 917.333c259.206 0 469.333-210.128 469.333-469.333s-210.128-469.333-469.333-469.333c-259.206 0-469.333 210.128-469.333 469.333s210.128 469.333 469.333 469.333zM566.303 725.333c-77.13 0-139.636-62.506-139.636-139.636v0l-0.043-95.158-42.624-0.033-4.976-0.287c-21.22-2.465-37.691-20.499-37.691-42.38 0-23.564 19.103-42.667 42.667-42.667v0l42.624 0.033v-127.957l-42.624-0.004-4.976-0.287c-21.22-2.465-37.691-20.499-37.691-42.38 0-23.564 19.103-42.667 42.667-42.667v0h256l4.976 0.287c21.22 2.465 37.691 20.499 37.691 42.38 0 23.564-19.103 42.667-42.667 42.667v0l-128.043 0.004v127.957l85.376-0.033 4.976 0.287c21.22 2.465 37.691 20.499 37.691 42.38 0 23.564-19.103 42.667-42.667 42.667v0l-85.376 0.033 0.043 95.158 0.28 5.554c2.78 27.391 25.896 48.749 54.023 48.749 25.919 0 48.124-18.353 53.219-43.411v0l1.273-4.819c6.643-20.303 27.598-32.851 49.040-28.491 23.092 4.695 38.005 27.221 33.31 50.313-13.14 64.623-70.146 111.741-136.841 111.741z" />
<glyph unicode="&#xe921;" glyph-name="system_banking_budget_pound" d="M512 917.333c259.206 0 469.333-210.128 469.333-469.333s-210.128-469.333-469.333-469.333c-259.206 0-469.333 210.128-469.333 469.333s210.128 469.333 469.333 469.333zM512 832c-212.077 0-384-171.923-384-384s171.923-384 384-384c212.077 0 384 171.923 384 384s-171.923 384-384 384zM566.303 725.333c66.695 0 123.702-47.118 136.841-111.741 4.695-23.092-10.218-45.617-33.31-50.313-21.442-4.36-42.397 8.188-49.040 28.491l-1.273 4.819c-5.095 25.057-27.3 43.411-53.219 43.411-28.127 0-51.243-21.358-54.023-48.749l-0.28-5.554-0.043-95.158 85.376-0.033c23.564 0 42.667-19.103 42.667-42.667 0-21.881-16.471-39.915-37.691-42.38l-4.976-0.287-85.376 0.033v-127.957l128.043-0.004c23.564 0 42.667-19.103 42.667-42.667 0-21.881-16.471-39.915-37.691-42.38l-4.976-0.287-169.934-0.061c-0.244-0.004-0.488-0.006-0.732-0.006l-0.768 0.071-84.565-0.004c-23.564 0-42.667 19.103-42.667 42.667 0 21.881 16.471 39.915 37.691 42.38l4.976 0.287 42.624 0.004v127.957l-42.624-0.033c-23.564 0-42.667 19.103-42.667 42.667 0 21.881 16.471 39.915 37.691 42.38l4.976 0.287 42.624 0.033 0.043 95.158c0 77.13 62.506 139.636 139.636 139.636z" />
<glyph unicode="&#xe922;" glyph-name="system_banking_budget_yen_fill" d="M512 917.333c259.206 0 469.333-210.128 469.333-469.333s-210.128-469.333-469.333-469.333c-259.206 0-469.333 210.128-469.333 469.333s210.128 469.333 469.333 469.333zM685.801 696.287c-19.305 13.513-45.908 8.818-59.422-10.486v0l-114.379-163.348-114.379 163.348-3.342 4.194c-14.221 15.725-38.261 18.766-56.080 6.292-19.305-13.513-23.999-40.117-10.486-59.422v0l102.321-146.195-46.034-0.004-4.976-0.287c-21.22-2.465-37.691-20.499-37.691-42.38 0-23.564 19.103-42.667 42.667-42.667v0l85.33 0.004v-42.667l-85.33-0.004-4.976-0.287c-21.22-2.465-37.691-20.499-37.691-42.38 0-23.564 19.103-42.667 42.667-42.667v0l85.33 0.004 0.004-85.337 0.287-4.976c2.465-21.22 20.499-37.691 42.38-37.691 23.564 0 42.667 19.103 42.667 42.667v0l-0.004 85.337 85.337-0.004 4.976 0.287c21.22 2.465 37.691 20.499 37.691 42.38 0 23.564-19.103 42.667-42.667 42.667v0l-85.337 0.004v42.667l85.337-0.004 4.976 0.287c21.22 2.465 37.691 20.499 37.691 42.38 0 23.564-19.103 42.667-42.667 42.667v0l-46.084 0.004 102.371 146.195 2.797 4.575c9.908 18.745 4.537 42.373-13.283 54.846z" />
<glyph unicode="&#xe923;" glyph-name="system_banking_budget_yen" d="M512 917.333c259.206 0 469.333-210.128 469.333-469.333s-210.128-469.333-469.333-469.333c-259.206 0-469.333 210.128-469.333 469.333s210.128 469.333 469.333 469.333zM512 832c-212.077 0-384-171.923-384-384s171.923-384 384-384c212.077 0 384 171.923 384 384s-171.923 384-384 384zM685.801 696.287c17.82-12.474 23.191-36.102 13.283-54.846l-2.797-4.575-102.367-146.199h46.080c23.564 0 42.667-19.103 42.667-42.667 0-21.881-16.471-39.915-37.691-42.38l-4.976-0.287h-85.333v-42.667h85.333c23.564 0 42.667-19.103 42.667-42.667 0-21.881-16.471-39.915-37.691-42.38l-4.976-0.287h-85.333v-85.333c0-23.564-19.103-42.667-42.667-42.667-21.881 0-39.915 16.471-42.38 37.691l-0.287 4.976v85.333h-85.333c-23.564 0-42.667 19.103-42.667 42.667 0 21.881 16.471 39.915 37.691 42.38l4.976 0.287h85.333v42.667h-85.333c-23.564 0-42.667 19.103-42.667 42.667 0 21.881 16.471 39.915 37.691 42.38l4.976 0.287h46.037l-102.325 146.199c-13.513 19.305-8.818 45.908 10.486 59.422 17.82 12.474 41.859 9.433 56.080-6.292l3.342-4.194 114.379-163.348 114.379 163.348c13.513 19.305 40.117 23.999 59.422 10.486z" />
<glyph unicode="&#xe924;" glyph-name="system_banking_budget" d="M512 917.333c259.206 0 469.333-210.128 469.333-469.333s-210.128-469.333-469.333-469.333c-259.206 0-469.333 210.128-469.333 469.333s210.128 469.333 469.333 469.333zM512 832c-212.077 0-384-171.923-384-384s171.923-384 384-384c212.077 0 384 171.923 384 384s-171.923 384-384 384zM512 746.667c21.881 0 39.915-16.471 42.38-37.691l0.287-4.976v-42.667h91.733c23.564 0 42.667-19.103 42.667-42.667 0-21.881-16.471-39.915-37.691-42.38l-4.976-0.287h-183.558c-23.503 0-42.575-19.092-42.575-42.667 0-21.891 16.445-39.916 37.612-42.38l4.963-0.287h98.316c71.378 0 127.909-57.255 127.909-129.915 0-68.386-57.057-122.124-120.801-125.875l-7.108-0.209h-6.491v-42.667c0-23.564-19.103-42.667-42.667-42.667-21.881 0-39.915 16.471-42.38 37.691l-0.287 4.976v42.667h-91.733c-23.564 0-42.667 19.103-42.667 42.667 0 21.881 16.471 39.915 37.691 42.38l4.976 0.287h183.558c21.324 0 42.575 19.106 42.575 40.751 0 24.055-16.177 42.043-37.851 44.335l-4.725 0.247h-98.316c-70.652 0-127.909 57.318-127.909 128 0 68.158 53.24 123.889 120.392 127.783l7.517 0.217h6.491v42.667c0 23.564 19.103 42.667 42.667 42.667z" />
<glyph unicode="&#xe925;" glyph-name="system_banking_calculator_simulator" d="M853.333 917.333c70.692 0 128-57.308 128-128v0-682.667c0-70.692-57.308-128-128-128v0h-682.667c-70.692 0-128 57.308-128 128v0 682.667c0 70.692 57.308 128 128 128v0zM853.333 832h-682.667c-23.564 0-42.667-19.103-42.667-42.667v0-682.667c0-23.564 19.103-42.667 42.667-42.667v0h682.667c23.564 0 42.667 19.103 42.667 42.667v0 682.667c0 23.564-19.103 42.667-42.667 42.667v0zM341.333 426.667c21.881 0 39.915-16.471 42.38-37.691l0.287-4.976v-64h64c23.564 0 42.667-19.103 42.667-42.667 0-21.881-16.471-39.915-37.691-42.38l-4.976-0.287h-64v-64c0-23.564-19.103-42.667-42.667-42.667-21.881 0-39.915 16.471-42.38 37.691l-0.287 4.976v64h-64c-23.564 0-42.667 19.103-42.667 42.667 0 21.881 16.471 39.915 37.691 42.38l4.976 0.287h64v64c0 23.564 19.103 42.667 42.667 42.667zM266.625 753.251l4.019-3.549 543.051-543.065c16.662-16.663 16.662-43.678-0.001-60.34-15.381-15.38-39.583-16.563-56.32-3.549l-4.019 3.549-543.051 543.065c-16.662 16.663-16.662 43.678 0.001 60.34 15.381 15.38 39.583 16.563 56.32 3.549zM789.333 661.333c23.564 0 42.667-19.103 42.667-42.667 0-21.881-16.471-39.915-37.691-42.38l-4.976-0.287h-213.333c-23.564 0-42.667 19.103-42.667 42.667 0 21.881 16.471 39.915 37.691 42.38l4.976 0.287h213.333z" />
<glyph unicode="&#xe926;" glyph-name="system_banking_calculator" d="M810.667 917.333c70.692 0 128-57.308 128-128v0-682.667c0-70.692-57.308-128-128-128v0h-597.333c-70.692 0-128 57.308-128 128v0 682.667c0 70.692 57.308 128 128 128v0zM810.667 832h-597.333c-23.564 0-42.667-19.103-42.667-42.667v0-682.667c0-23.564 19.103-42.667 42.667-42.667v0h597.333c23.564 0 42.667 19.103 42.667 42.667v0 682.667c0 23.564-19.103 42.667-42.667 42.667v0zM341.333 234.667c23.564 0 42.667-19.103 42.667-42.667 0-21.881-16.471-39.915-37.691-42.38l-4.976-0.287h-42.667c-23.564 0-42.667 19.103-42.667 42.667 0 21.881 16.471 39.915 37.691 42.38l4.976 0.287h42.667zM533.333 234.667c23.564 0 42.667-19.103 42.667-42.667 0-21.881-16.471-39.915-37.691-42.38l-4.976-0.287h-42.667c-23.564 0-42.667 19.103-42.667 42.667 0 21.881 16.471 39.915 37.691 42.38l4.976 0.287h42.667zM725.333 234.667c23.564 0 42.667-19.103 42.667-42.667 0-21.881-16.471-39.915-37.691-42.38l-4.976-0.287h-42.667c-23.564 0-42.667 19.103-42.667 42.667 0 21.881 16.471 39.915 37.691 42.38l4.976 0.287h42.667zM341.333 405.407c23.564 0 42.667-19.103 42.667-42.667 0-21.881-16.471-39.915-37.691-42.38l-4.976-0.287h-42.667c-23.564 0-42.667 19.103-42.667 42.667 0 21.881 16.471 39.915 37.691 42.38l4.976 0.287h42.667zM533.333 405.407c23.564 0 42.667-19.103 42.667-42.667 0-21.881-16.471-39.915-37.691-42.38l-4.976-0.287h-42.667c-23.564 0-42.667 19.103-42.667 42.667 0 21.881 16.471 39.915 37.691 42.38l4.976 0.287h42.667zM725.333 405.407c23.564 0 42.667-19.103 42.667-42.667 0-21.881-16.471-39.915-37.691-42.38l-4.976-0.287h-42.667c-23.564 0-42.667 19.103-42.667 42.667 0 21.881 16.471 39.915 37.691 42.38l4.976 0.287h42.667zM725.333 746.667c23.564 0 42.667-19.103 42.667-42.667v0-170.667c0-23.564-19.103-42.667-42.667-42.667v0h-426.667c-23.564 0-42.667 19.103-42.667 42.667v0 170.667c0 23.564 19.103 42.667 42.667 42.667v0zM682.624 661.333h-341.333v-85.333h341.333v85.333z" />
<glyph unicode="&#xe927;" glyph-name="system_banking_capitalization_bond" d="M628.364 917.333c-37.042 0-71.424-8.837-102.368-23.507l-7.737-3.819-6.258-3.309-6.258 3.309c-2.478 1.274-5.058 2.549-7.737 3.819-30.944 14.67-65.326 23.507-102.368 23.507l-7.941-0.225c-89.080-5.066-146.658-95.065-125.068-189.162l13.98-44.47-41.248 12.995c-100.172 23.125-192.694-38.543-192.694-132.109 0-37.042 8.837-71.424 23.507-102.368l3.819-7.737 3.309-6.258-3.309-6.258c-1.274-2.478-2.549-5.058-3.819-7.737-14.67-30.944-23.507-65.326-23.507-102.368l0.225-7.941c5.066-89.080 95.065-146.658 189.162-125.068l44.47 14.023-12.995-41.29c-23.125-100.173 38.543-192.694 132.109-192.694 37.042 0 71.424 8.837 102.368 23.507l7.737 3.819 6.258 3.351 6.258-3.351c2.478-1.274 5.058-2.549 7.737-3.819 30.944-14.67 65.326-23.507 102.368-23.507l7.941 0.225c89.080 5.066 146.658 95.065 125.068 189.162l-14.023 44.513 41.29-13.038c100.173-23.125 192.694 38.543 192.694 132.109 0 37.042-8.837 71.424-23.507 102.368l-3.819 7.737-3.351 6.258 3.351 6.258c1.274 2.478 2.549 5.058 3.819 7.737 14.67 30.944 23.507 65.326 23.507 102.368l-0.225 7.941c-5.066 89.080-95.065 146.658-189.162 125.068l-44.513-13.98 13.038 41.247c23.125 100.173-38.543 192.694-132.109 192.694zM628.364 832c34.929 0 60.522-38.398 49.837-84.97l-36.813-116.107c-10.402-32.936 20.599-63.937 53.535-53.535l119.415 37.713c43.264 9.785 81.662-15.808 81.662-50.737 0-23.412-5.708-45.621-15.281-65.814-5.655-11.928-11.047-20.1-13.825-23.486-12.91-15.734-12.91-38.395 0-54.128 2.778-3.386 8.17-11.558 13.825-23.486 9.573-20.192 15.281-42.401 15.281-65.814 0-34.929-38.398-60.522-84.97-49.837l-116.107 36.813c-32.936 10.402-63.937-20.599-53.535-53.535l37.713-119.415c9.785-43.264-15.808-81.662-50.737-81.662-23.412 0-45.621 5.708-65.814 15.281-11.928 5.655-20.1 11.047-23.486 13.825-15.734 12.91-38.395 12.91-54.128 0-3.386-2.778-11.558-8.17-23.486-13.825-20.192-9.573-42.401-15.281-65.814-15.281-34.929 0-60.522 38.398-49.837 84.97l36.813 116.107c10.402 32.936-20.599 63.937-53.535 53.535l-119.415-37.713c-43.264-9.785-81.662 15.808-81.662 50.737 0 23.412 5.708 45.621 15.281 65.814 5.655 11.928 11.047 20.1 13.825 23.486 12.91 15.734 12.91 38.395 0 54.128-2.778 3.386-8.17 11.558-13.825 23.486-9.573 20.192-15.281 42.401-15.281 65.814 0 34.929 38.398 60.522 84.97 49.837l116.108-36.813c32.936-10.402 63.937 20.599 53.535 53.535l-37.713 119.415c-9.785 43.264 15.808 81.662 50.737 81.662 23.412 0 45.621-5.708 65.814-15.281 11.928-5.655 20.1-11.047 23.486-13.825 15.734-12.91 38.395-12.91 54.128 0 3.386 2.778 11.558 8.17 23.486 13.825 20.192 9.573 42.401 15.281 65.814 15.281z" />
<glyph unicode="&#xe928;" glyph-name="system_banking_card_add" d="M810.667 320c21.881 0 39.915-16.471 42.38-37.691l0.287-4.976v-85.333h85.333c23.564 0 42.667-19.103 42.667-42.667 0-21.881-16.471-39.915-37.691-42.38l-4.976-0.287h-85.333v-85.333c0-23.564-19.103-42.667-42.667-42.667-21.881 0-39.915 16.471-42.38 37.691l-0.287 4.976v85.333h-85.333c-23.564 0-42.667 19.103-42.667 42.667 0 21.881 16.471 39.915 37.691 42.38l4.976 0.287h85.333v85.333c0 23.564 19.103 42.667 42.667 42.667zM853.333 917.333c68.168 0 123.89-53.287 127.783-120.479l0.217-7.521v-341.333c0-23.564-19.103-42.667-42.667-42.667-21.881 0-39.915 16.471-42.38 37.691l-0.287 4.976v341.333c0 21.881-16.471 39.915-37.691 42.38l-4.976 0.287h-682.667c-21.881 0-39.915-16.471-42.38-37.691l-0.287-4.976v-384h512c23.564 0 42.667-19.103 42.667-42.667 0-21.881-16.471-39.915-37.691-42.38l-4.976-0.287h-512v-42.667c0-21.881 16.471-39.915 37.691-42.38l4.976-0.287h341.333c23.564 0 42.667-19.103 42.667-42.667 0-21.881-16.471-39.915-37.691-42.38l-4.976-0.287h-341.333c-68.168 0-123.89 53.287-127.783 120.479l-0.217 7.521v512c0 68.168 53.287 123.89 120.479 127.783l7.521 0.217h682.667zM426.667 576c23.564 0 42.667-19.103 42.667-42.667 0-21.881-16.471-39.915-37.691-42.38l-4.976-0.287h-170.667c-23.564 0-42.667 19.103-42.667 42.667 0 21.881 16.471 39.915 37.691 42.38l4.976 0.287h170.667z" />
<glyph unicode="&#xe929;" glyph-name="system_banking_card_apple" d="M853.333 917.333c68.168 0 123.89-53.287 127.783-120.479l0.217-7.521v-128c0-23.564-19.103-42.667-42.667-42.667-21.881 0-39.915 16.471-42.38 37.691l-0.287 4.976v128c0 21.881-16.471 39.915-37.691 42.38l-4.976 0.287h-682.667c-21.881 0-39.915-16.471-42.38-37.691l-0.287-4.976v-512c0-21.881 16.471-39.915 37.691-42.38l4.976-0.287h170.667c23.564 0 42.667-19.103 42.667-42.667 0-21.881-16.471-39.915-37.691-42.38l-4.976-0.287h-170.667c-68.168 0-123.89 53.287-127.783 120.479l-0.217 7.521v512c0 68.168 53.287 123.89 120.479 127.783l7.521 0.217h682.667zM836.433 436.678c45.236 0 91.19-23.839 123.328-63.475 10.617-13.093 6.739-32.61-8.076-40.651-67.845-36.824-59.113-134.524 12.144-161.205 14.625-5.476 21.546-22.199 15.069-36.408-14.675-32.196-21.051-44.168-36.693-67.722v0l-4.75-7.070c-36.195-53.108-67.465-81.053-110.922-81.443-16.61-0.156-28.994 3.103-44.945 10.16v0l-7.361 3.317c-14.455 6.493-23.443 8.832-39.057 8.749-15.612-0.083-24.926-2.49-39.624-8.904v0l-14.785-6.27c-12.916-4.954-24.073-7.261-38.149-7.131-45.399 0.412-77.677 29.686-114.026 84.433-65.743 99.16-77.963 222.792-30.714 294.82 31.856 48.588 83.318 78.775 134.475 78.775 21.313 0 36.984-3.755 62.761-12.832v0l9.117-3.203 9.794-3.148c8.097-2.361 14.387-3.422 20.55-3.422 6.273 0 12.349 1.219 20.736 4.043v0l24.081 8.719c19.86 6.762 35.961 9.868 57.047 9.868zM852.698 604.28c5.981-38.918-10.492-76.995-32.21-103.975-23.256-28.889-63.318-51.276-102.011-50.111-7.050 37.268 11.093 75.571 33.079 101.419 24.225 28.469 65.657 50.305 101.142 52.667zM426.667 576c23.564 0 42.667-19.103 42.667-42.667 0-21.881-16.471-39.915-37.691-42.38l-4.976-0.287h-170.667c-23.564 0-42.667 19.103-42.667 42.667 0 21.881 16.471 39.915 37.691 42.38l4.976 0.287h170.667zM384 405.333c23.564 0 42.667-19.103 42.667-42.667 0-21.881-16.471-39.915-37.691-42.38l-4.976-0.287h-298.667c-23.564 0-42.667 19.103-42.667 42.667 0 21.881 16.471 39.915 37.691 42.38l4.976 0.287h298.667z" />
<glyph unicode="&#xe92a;" glyph-name="system_banking_card_contactless" d="M903.914 310.623c48.94-39.233 77.419-98.565 77.419-161.29s-28.479-122.057-77.419-161.29c-18.386-14.739-45.238-11.783-59.977 6.603s-11.783 45.238 6.603 59.977c28.738 23.038 45.461 57.878 45.461 94.71s-16.723 71.672-45.461 94.71c-18.386 14.739-21.342 41.592-6.603 59.977s41.592 21.342 59.977 6.603zM725.333 213.333c35.346 0 64-28.654 64-64s-28.654-64-64-64c-35.346 0-64 28.654-64 64s28.654 64 64 64zM853.333 917.333c68.168 0 123.89-53.287 127.783-120.479l0.217-7.521v-341.333c0-23.564-19.103-42.667-42.667-42.667-21.881 0-39.915 16.471-42.38 37.691l-0.287 4.976v341.333c0 21.881-16.471 39.915-37.691 42.38l-4.976 0.287h-682.667c-21.881 0-39.915-16.471-42.38-37.691l-0.287-4.976v-384h512c23.564 0 42.667-19.103 42.667-42.667 0-21.881-16.471-39.915-37.691-42.38l-4.976-0.287h-512v-42.667c0-21.881 16.471-39.915 37.691-42.38l4.976-0.287h341.333c23.564 0 42.667-19.103 42.667-42.667 0-21.881-16.471-39.915-37.691-42.38l-4.976-0.287h-341.333c-68.168 0-123.89 53.287-127.783 120.479l-0.217 7.521v512c0 68.168 53.287 123.89 120.479 127.783l7.521 0.217h682.667zM426.667 576c23.564 0 42.667-19.103 42.667-42.667 0-21.881-16.471-39.915-37.691-42.38l-4.976-0.287h-170.667c-23.564 0-42.667 19.103-42.667 42.667 0 21.881 16.471 39.915 37.691 42.38l4.976 0.287h170.667z" />
<glyph unicode="&#xe92b;" glyph-name="system_banking_card_delete" d="M751.689 268.374l4.018-3.551 76.378-76.45 76.398 76.45c16.655 16.67 43.67 16.682 60.34 0.027 15.388-15.374 16.581-39.575 3.575-56.319l-3.548-4.021-76.477-76.51 76.477-76.51c16.655-16.67 16.643-43.685-0.027-60.34-15.388-15.374-39.59-16.546-56.322-3.524l-4.018 3.551-76.398 76.492-76.378-76.492c-16.655-16.67-43.67-16.682-60.34-0.027-15.388 15.374-16.581 39.575-3.575 56.319l3.548 4.021 76.457 76.51-76.457 76.51c-16.655 16.67-16.643 43.685 0.027 60.34 15.388 15.374 39.59 16.546 56.322 3.524zM853.333 917.333c68.168 0 123.89-53.287 127.783-120.479l0.217-7.521v-341.333c0-23.564-19.103-42.667-42.667-42.667-21.881 0-39.915 16.471-42.38 37.691l-0.287 4.976v341.333c0 21.881-16.471 39.915-37.691 42.38l-4.976 0.287h-682.667c-21.881 0-39.915-16.471-42.38-37.691l-0.287-4.976v-384h512c23.564 0 42.667-19.103 42.667-42.667 0-21.881-16.471-39.915-37.691-42.38l-4.976-0.287h-512v-42.667c0-21.881 16.471-39.915 37.691-42.38l4.976-0.287h341.333c23.564 0 42.667-19.103 42.667-42.667 0-21.881-16.471-39.915-37.691-42.38l-4.976-0.287h-341.333c-68.168 0-123.89 53.287-127.783 120.479l-0.217 7.521v512c0 68.168 53.287 123.89 120.479 127.783l7.521 0.217h682.667zM426.667 576c23.564 0 42.667-19.103 42.667-42.667 0-21.881-16.471-39.915-37.691-42.38l-4.976-0.287h-170.667c-23.564 0-42.667 19.103-42.667 42.667 0 21.881 16.471 39.915 37.691 42.38l4.976 0.287h170.667z" />
<glyph unicode="&#xe92c;" glyph-name="system_banking_card_exchange" d="M938.603 192.169c23.564 0 42.667-19.103 42.667-42.667 0-21.881-16.471-39.915-37.691-42.38l-4.976-0.287-268.182 0.002 55.17-55.165c15.381-15.381 16.564-39.583 3.549-56.32l-3.549-4.020c-15.381-15.381-39.583-16.564-56.32-3.549l-4.020 3.549-91.582 91.582c-12.002 12.002-18.745 28.281-18.745 45.255 0 33.267 25.382 60.606 57.836 63.707l6.164 0.293h319.678zM853.333 917.333c68.168 0 123.89-53.287 127.783-120.479l0.217-7.521v-256c0-23.564-19.103-42.667-42.667-42.667-21.881 0-39.915 16.471-42.38 37.691l-0.287 4.976v256c0 21.881-16.471 39.915-37.691 42.38l-4.976 0.287h-682.667c-21.881 0-39.915-16.471-42.38-37.691l-0.287-4.976v-384h341.333c23.564 0 42.667-19.103 42.667-42.667 0-21.881-16.471-39.915-37.691-42.38l-4.976-0.287h-341.333v-42.667c0-21.881 16.471-39.915 37.691-42.38l4.976-0.287h213.333c23.564 0 42.667-19.103 42.667-42.667 0-21.881-16.471-39.915-37.691-42.38l-4.976-0.287h-213.333c-68.168 0-123.89 53.287-127.783 120.479l-0.217 7.521v512c0 68.168 53.287 123.89 120.479 127.783l7.521 0.217h682.667zM866.684 439.053l4.020-3.549 91.582-91.582c12.002-12.002 18.745-28.281 18.745-45.255 0-33.267-25.382-60.606-57.836-63.707l-6.164-0.293h-319.645c-23.564 0-42.667 19.103-42.667 42.667 0 21.881 16.471 39.915 37.691 42.38l4.976 0.287h268.151l-55.173 55.163c-15.381 15.381-16.564 39.583-3.549 56.32l3.549 4.020c15.381 15.381 39.583 16.564 56.32 3.549zM426.667 576c23.564 0 42.667-19.103 42.667-42.667 0-21.881-16.471-39.915-37.691-42.38l-4.976-0.287h-170.667c-23.564 0-42.667 19.103-42.667 42.667 0 21.881 16.471 39.915 37.691 42.38l4.976 0.287h170.667z" />
<glyph unicode="&#xe92d;" glyph-name="system_banking_card_mobile" d="M853.333 917.333c70.692 0 128-57.308 128-128v0-341.333c0-70.692-57.308-128-128-128v0h-426.667c-70.692 0-128 57.308-128 128v0 298.667l-89.773-0.041-14.239-0.391c-18.946-0.917-27.798-3.381-36.815-8.203-9.252-4.948-16.258-11.954-21.206-21.206-5.894-11.020-8.264-21.795-8.594-51.053v-520.879l0.391-14.239c0.917-18.946 3.381-27.798 8.203-36.815 4.948-9.252 11.954-16.258 21.206-21.206 11.020-5.894 21.795-8.264 51.053-8.594l299.835-0.041c35.175 0 46.825 2.25 58.764 8.635 9.252 4.948 16.258 11.954 21.206 21.206 6.385 11.938 8.635 23.589 8.635 58.764 0 23.564 19.103 42.667 42.667 42.667s42.667-19.103 42.667-42.667c0-48.057-4.82-73.016-18.72-99.007-12.901-24.123-32.088-43.31-56.211-56.211-23.992-12.831-47.104-17.925-88.316-18.632l-10.691-0.087h-292.125c-48.057 0-73.016 4.82-99.007 18.72-24.123 12.901-43.31 32.088-56.211 56.211-12.831 23.992-17.925 47.104-18.632 88.316l-0.087 10.691v505.458c0 48.057 4.82 73.016 18.72 99.007 12.901 24.123 32.088 43.31 56.211 56.211 23.992 12.831 47.104 17.925 88.316 18.632l10.691 0.087 89.345-0.004c17.571 49.717 64.984 85.337 120.718 85.337v0zM405.333 192c23.564 0 42.667-19.103 42.667-42.667 0-21.881-16.471-39.915-37.691-42.38l-4.976-0.287h-85.333c-23.564 0-42.667 19.103-42.667 42.667 0 21.881 16.471 39.915 37.691 42.38l4.976 0.287h85.333zM896 448h-512c0-23.564 19.103-42.667 42.667-42.667v0h426.667c23.564 0 42.667 19.103 42.667 42.667v0zM853.333 832h-426.667c-23.564 0-42.667-19.103-42.667-42.667v0-256h512v256c0 21.881-16.471 39.915-37.691 42.38l-4.976 0.287zM554.667 661.333c23.564 0 42.667-19.103 42.667-42.667 0-21.881-16.471-39.915-37.691-42.38l-4.976-0.287h-85.333c-23.564 0-42.667 19.103-42.667 42.667 0 21.881 16.471 39.915 37.691 42.38l4.976 0.287h85.333z" />
<glyph unicode="&#xe92e;" glyph-name="system_banking_card_next" d="M853.333 832h-682.667c-70.692 0-128-57.308-128-128v-512c0-70.692 57.308-128 128-128h682.667c70.692 0 128 57.308 128 128v512c0 70.692-57.308 128-128 128zM170.667 746.667h682.667c23.564 0 42.667-19.103 42.667-42.667v-512c0-23.564-19.103-42.667-42.667-42.667h-682.667c-23.564 0-42.667 19.103-42.667 42.667v512c0 23.564 19.103 42.667 42.667 42.667zM366.277 635.865c11.59 26.494 45.166 33.631 66.506 15.607l3.85-3.676 129.81-139.85 180.056 105.044c32.63 19.037 71.195-10.465 63.223-45.886l-1.243-4.455-85.333-256.095c-9.679-29.048-45.408-38.281-67.926-19.198l-3.828 3.663-100.991 108.809-272.891-159.344c-34.292-20.017-73.967 13.361-62.255 49.591l1.656 4.358 149.367 341.431zM418.347 542.080l-70.784-161.877 143.36 83.712-72.576 78.165zM691.755 482.304l-65.792-38.4 38.997-42.027 26.795 80.427z" />
<glyph unicode="&#xe92f;" glyph-name="system_banking_card_safety" d="M768.102 405.333c66.171-0.158 123.281-43.891 127.633-103.934l0.265-6.999v-59.733c47.128 0 85.333-38.205 85.333-85.333v0-85.333c0-47.128-38.205-85.333-85.333-85.333v0h-256c-47.128 0-85.333 38.205-85.333 85.333v0 85.333c0 47.128 38.205 85.333 85.333 85.333v0 59.893c0.237 63.454 59.182 110.61 128.102 110.774zM896 149.333h-256v-85.333h256v85.333zM853.333 917.333c68.168 0 123.89-53.287 127.783-120.479l0.217-7.521v-298.667c0-23.564-19.103-42.667-42.667-42.667-21.881 0-39.915 16.471-42.38 37.691l-0.287 4.976v298.667c0 21.881-16.471 39.915-37.691 42.38l-4.976 0.287h-682.667c-21.881 0-39.915-16.471-42.38-37.691l-0.287-4.976v-384h384c23.564 0 42.667-19.103 42.667-42.667 0-21.881-16.471-39.915-37.691-42.38l-4.976-0.287h-384v-42.667c0-21.881 16.471-39.915 37.691-42.38l4.976-0.287h256c23.564 0 42.667-19.103 42.667-42.667 0-21.881-16.471-39.915-37.691-42.38l-4.976-0.287h-256c-68.168 0-123.89 53.287-127.783 120.479l-0.217 7.521v512c0 68.168 53.287 123.89 120.479 127.783l7.521 0.217h682.667zM768.102 320c-23.468-0.056-40.015-11.853-42.456-22.869l-0.312-2.73v-59.733h85.333v59.574c-0.044 11.858-17.345 25.699-42.565 25.759zM426.667 576c23.564 0 42.667-19.103 42.667-42.667 0-21.881-16.471-39.915-37.691-42.38l-4.976-0.287h-170.667c-23.564 0-42.667 19.103-42.667 42.667 0 21.881 16.471 39.915 37.691 42.38l4.976 0.287h170.667z" />
<glyph unicode="&#xe930;" glyph-name="system_banking_card_virtual" d="M714.606 149.333c23.564 0 42.667-19.103 42.667-42.667s-19.103-42.667-42.667-42.667v0h-145.067c-23.564 0-42.667 19.103-42.667 42.667s19.103 42.667 42.667 42.667v0zM666.529 832c23.564 0 42.667-19.103 42.667-42.667 0-21.881-16.471-39.915-37.691-42.38l-4.976-0.287h-495.862c-21.881 0-39.915-16.471-42.38-37.691l-0.287-4.976v-384h512c23.564 0 42.667-19.103 42.667-42.667 0-21.881-16.471-39.915-37.691-42.38l-4.976-0.287h-512v-42.667c0-21.881 16.471-39.915 37.691-42.38l4.976-0.287h205.264c23.564 0 42.667-19.103 42.667-42.667 0-21.881-16.471-39.915-37.691-42.38l-4.976-0.287h-205.264c-68.168 0-123.89 53.287-127.783 120.479l-0.217 7.521v512c0 68.168 53.287 123.89 120.479 127.783l7.521 0.217h495.862zM938.667 276.214c23.564 0 42.667-19.103 42.667-42.667v0-41.547c0-55.595-39.615-102.648-95.722-120.449-22.461-7.126-46.446 5.305-53.572 27.766s5.305 46.446 27.766 53.572v0l5.951 2.174c19.061 7.936 30.243 22.529 30.243 36.937v0 41.547c0 23.564 19.103 42.667 42.667 42.667zM938.667 583.414c23.564 0 42.667-19.103 42.667-42.667v0-145.067c0-23.564-19.103-42.667-42.667-42.667s-42.667 19.103-42.667 42.667v0 145.067c0 23.564 19.103 42.667 42.667 42.667zM426.667 490.667c23.564 0 42.667-19.103 42.667-42.667 0-21.881-16.471-39.915-37.691-42.38l-4.976-0.287h-170.667c-23.564 0-42.667 19.103-42.667 42.667 0 21.881 16.471 39.915 37.691 42.38l4.976 0.287h170.667zM836.311 832c78.552 0 145.023-55.416 145.023-128v0l-0.287-6.095c-2.465-21.22-20.499-37.691-42.38-37.691-23.564 0-42.667 19.103-42.667 42.667v0 1.119c0 21.673-25.182 42.667-59.689 42.667v0l-4.976 0.287c-21.22 2.465-37.691 20.499-37.691 42.38 0 23.564 19.103 42.667 42.667 42.667z" />
<glyph unicode="&#xe931;" glyph-name="system_banking_card" d="M853.333 832c70.692 0 128-57.308 128-128v0-512c0-70.692-57.308-128-128-128v0h-682.667c-70.692 0-128 57.308-128 128v0 512c0 70.692 57.308 128 128 128v0zM896 234.667h-768v-42.667c0-21.881 16.471-39.915 37.691-42.38l4.976-0.287h682.667c23.564 0 42.667 19.103 42.667 42.667v0 42.667zM853.333 746.667h-682.667c-23.564 0-42.667-19.103-42.667-42.667v0-384h768v384c0 21.881-16.471 39.915-37.691 42.38l-4.976 0.287zM426.667 490.667c23.564 0 42.667-19.103 42.667-42.667 0-21.881-16.471-39.915-37.691-42.38l-4.976-0.287h-170.667c-23.564 0-42.667 19.103-42.667 42.667 0 21.881 16.471 39.915 37.691 42.38l4.976 0.287h170.667z" />
<glyph unicode="&#xe932;" glyph-name="system_banking_cash_register" d="M725.333 917.333c23.564 0 42.667-19.103 42.667-42.667v0-128c0-23.564-19.103-42.667-42.667-42.667v0h-85.333v-42.667l42.667-0.020c44.986 0 81.842-34.811 85.099-78.965l0.234-6.369v-77.207l79.778-97.493c28.786-35.183 45.518-78.558 47.921-123.757l0.301-11.334v-74.189c47.128 0 85.333-38.205 85.333-85.333v0-85.333c0-23.564-19.103-42.667-42.667-42.667v0h-853.333c-23.564 0-42.667 19.103-42.667 42.667v0 85.333c0 47.128 38.205 85.333 85.333 85.333v0 74.112c0 45.512 14.552 89.728 41.372 126.255l6.959 8.968 79.84 97.481 0.039 77.164c0 44.986 34.811 81.842 78.965 85.099l6.369 0.234 213.124 0.020v42.667h-85.333c-21.881 0-39.915 16.471-42.38 37.691l-0.287 4.976v128c0 23.564 19.103 42.667 42.667 42.667v0zM896 106.667h-768l-0.043-42.667h768l0.043 42.667zM682.667 575.98h-341.124v-92.425c0-7.889-2.186-15.583-6.261-22.25l-3.405-4.795-89.545-109.265c-16.668-20.339-26.616-45.251-28.621-71.313l-0.377-9.821v-74.112h597.333v74.189c0 26.265-8.077 51.81-23.013 73.225l-5.92 7.83-89.422 109.294c-4.99 6.098-8.168 13.427-9.24 21.158l-0.404 5.86v92.425zM640 320c23.564 0 42.667-19.103 42.667-42.667 0-21.881-16.471-39.915-37.691-42.38l-4.976-0.287h-256c-23.564 0-42.667 19.103-42.667 42.667 0 21.881 16.471 39.915 37.691 42.38l4.976 0.287h256zM682.667 832h-170.667v-42.667h170.667v42.667z" />
<glyph unicode="&#xe933;" glyph-name="system_banking_cashback" d="M213.333 832c44.986 0 81.842-34.811 85.099-78.965l0.234-6.369v-128c0-23.564-19.103-42.667-42.667-42.667-21.881 0-39.915 16.471-42.38 37.691l-0.287 4.976-0.032 70.709c-54.501-67.315-85.301-151.817-85.301-241.376 0-212.077 171.923-384 384-384 23.564 0 42.667-19.103 42.667-42.667s-19.103-42.667-42.667-42.667c-259.206 0-469.333 210.128-469.333 469.333 0 111.026 38.81 215.819 107.254 298.668l-64.588-0.001c-23.564 0-42.667 19.103-42.667 42.667 0 21.881 16.471 39.915 37.691 42.38l4.976 0.287h128zM512 917.333c259.206 0 469.333-210.128 469.333-469.333 0-111.055-38.83-215.874-107.309-298.734l64.643 0.068c23.564 0 42.667-19.103 42.667-42.667 0-21.881-16.471-39.915-37.691-42.38l-4.976-0.287h-128c-44.986 0-81.842 34.811-85.099 78.965l-0.234 6.369v128c0 23.564 19.103 42.667 42.667 42.667 21.881 0 39.915-16.471 42.38-37.691l0.287-4.976 0.054-70.683c54.489 67.312 85.28 151.803 85.28 241.349 0 212.077-171.923 384-384 384-23.564 0-42.667 19.103-42.667 42.667s19.103 42.667 42.667 42.667zM512 703.866c21.881 0 39.915-16.471 42.38-37.691l0.287-4.976-0.043-42.532h64.043c23.564 0 42.667-19.103 42.667-42.667 0-21.881-16.471-39.915-37.691-42.38l-4.976-0.287-102.488-0.052c-1.375-0.134-2.769-0.202-4.178-0.202l-4.181 0.254h-34.833c-14.312 0-24.986-10.097-24.986-21.333 0-10.113 8.645-19.303 20.808-21.039l4.178-0.294h78.029c61.006 0 110.319-47.198 110.319-108.103 0-57.56-49.11-101.585-103.496-105.015l-3.213-0.087 0.043-42.929c0-23.564-19.103-42.667-42.667-42.667-21.881 0-39.915 16.471-42.38 37.691l-0.287 4.976-0.043 42.801h-63.957c-23.564 0-42.667 19.103-42.667 42.667 0 21.881 16.471 39.915 37.691 42.38l4.976 0.287h145.681c12.707 0 24.986 10.432 24.986 19.897 0 11.628-8.336 20.769-20.715 22.481l-4.27 0.289h-78.029c-60.414 0-110.319 47.211-110.319 106.667 0 57.078 45.992 102.87 103.122 106.442l3.502 0.096 0.043 42.66c0 23.564 19.103 42.667 42.667 42.667z" />
<glyph unicode="&#xe934;" glyph-name="system_banking_certificate" d="M488.074 955.665l4.926-2.831 245.261-163.501h115.072c21.881 0 39.915-16.471 42.38-37.691l0.287-4.976 0.051-170.689c51.787-38.923 85.282-100.872 85.282-170.644 0-48.010-15.859-92.316-42.625-127.965l-0.042-256.035c0-32.455-34.449-52.437-62.223-37.937l-4.111 2.436-104.333 69.549-104.333-69.549c-27.004-18.003-62.739-0.424-66.081 30.729l-0.253 4.772-0.009 255.992c-26.785 35.656-42.657 79.979-42.657 128.008 0 117.821 95.513 213.333 213.333 213.333 14.63 0 28.916-1.473 42.717-4.278l-0.051 89.611h-682.667v-512h341.333c21.881 0 39.915-16.471 42.38-37.691l0.287-4.976c0-21.881-16.471-39.915-37.691-42.38l-4.976-0.287h-384c-21.881 0-39.915 16.471-42.38 37.691l-0.287 4.976v597.333c0 21.881 16.471 39.915 37.691 42.38l4.976 0.287h115.029l245.303 163.501c12.739 8.493 28.907 9.437 42.408 2.831zM853.356 209.761c-26.138-11.424-55.007-17.761-85.356-17.761-30.333 0-59.187 6.331-85.314 17.743l-0.020-108.623 61.666 41.047c12.739 8.493 28.907 9.437 42.408 2.831l4.926-2.831 61.666-41.090zM768 533.333c-70.692 0-128-57.308-128-128s57.308-128 128-128c70.692 0 128 57.308 128 128s-57.308 128-128 128zM384 405.333c23.564 0 42.667-19.103 42.667-42.667 0-21.881-16.471-39.915-37.691-42.38l-4.976-0.287h-170.667c-23.564 0-42.667 19.103-42.667 42.667 0 21.881 16.471 39.915 37.691 42.38l4.976 0.287h170.667zM469.333 576c23.564 0 42.667-19.103 42.667-42.667 0-21.881-16.471-39.915-37.691-42.38l-4.976-0.287h-256c-23.564 0-42.667 19.103-42.667 42.667 0 21.881 16.471 39.915 37.691 42.38l4.976 0.287h256zM469.333 866.048l-115.072-76.715h230.144l-115.072 76.715z" />
<glyph unicode="&#xe935;" glyph-name="system_banking_chart_bar_statistics" d="M224.97 277.333c40.702 0 73.697-32.995 73.697-73.697v0-151.273c0-40.702-32.995-73.697-73.697-73.697v0h-108.606c-40.702 0-73.697 32.995-73.697 73.697v0 151.273c0 40.702 32.995 73.697 73.697 73.697v0zM566.303 405.333c40.702 0 73.697-32.995 73.697-73.697v0-279.273c0-40.702-32.995-73.697-73.697-73.697v0h-108.606c-40.702 0-73.697 32.995-73.697 73.697v0 279.273c0 40.702 32.995 73.697 73.697 73.697v0zM907.636 533.333c40.702 0 73.697-32.995 73.697-73.697v0-407.273c0-40.702-32.995-73.697-73.697-73.697v0h-108.606c-40.702 0-73.697 32.995-73.697 73.697v0 407.273c0 40.702 32.995 73.697 73.697 73.697v0zM213.333 192h-85.333v-128h85.333v128zM554.667 320h-85.333v-256h85.333v256zM896 448h-85.333v-384h85.333v384zM810.667 917.333c44.986 0 81.842-34.811 85.099-78.965l0.234-6.369v-170.667c0-23.564-19.103-42.667-42.667-42.667-21.881 0-39.915 16.471-42.38 37.691l-0.287 4.976-0.043 110.293-268.454-268.463c-15.381-15.381-39.583-16.564-56.32-3.549l-4.020 3.549-140.497 140.463-183.163-183.13c-15.381-15.381-39.583-16.564-56.32-3.549l-4.020 3.549c-15.381 15.381-16.564 39.583-3.549 56.32l3.549 4.020 213.333 213.333c15.381 15.381 39.583 16.564 56.32 3.549l4.020-3.549 140.497-140.463 238.251 238.293h-110.251c-23.564 0-42.667 19.103-42.667 42.667 0 21.881 16.471 39.915 37.691 42.38l4.976 0.287h170.667z" />
<glyph unicode="&#xe936;" glyph-name="system_banking_chart_bar" d="M938.667 64c23.564 0 42.667-19.103 42.667-42.667 0-21.881-16.471-39.915-37.691-42.38l-4.976-0.287h-853.333c-23.564 0-42.667 19.103-42.667 42.667 0 21.881 16.471 39.915 37.691 42.38l4.976 0.287h853.333zM224.97 533.333c40.702 0 73.697-32.995 73.697-73.697v0-279.273c0-40.702-32.995-73.697-73.697-73.697v0h-108.606c-40.702 0-73.697 32.995-73.697 73.697v0 279.273c0 40.702 32.995 73.697 73.697 73.697v0zM566.303 917.333c40.702 0 73.697-32.995 73.697-73.697v0-663.273c0-40.702-32.995-73.697-73.697-73.697v0h-108.606c-40.702 0-73.697 32.995-73.697 73.697v0 663.273c0 40.702 32.995 73.697 73.697 73.697v0zM907.636 661.333c40.702 0 73.697-32.995 73.697-73.697v0-407.273c0-40.702-32.995-73.697-73.697-73.697v0h-108.606c-40.702 0-73.697 32.995-73.697 73.697v0 407.273c0 40.702 32.995 73.697 73.697 73.697v0zM213.333 448h-85.333v-256h85.333v256zM554.667 832h-85.333v-640h85.333v640zM896 576h-85.333v-384h85.333v384z" />
<glyph unicode="&#xe937;" glyph-name="system_banking_chart_line" d="M938.667 106.667c23.564 0 42.667-19.103 42.667-42.667 0-21.881-16.471-39.915-37.691-42.38l-4.976-0.287h-853.333c-23.564 0-42.667 19.103-42.667 42.667 0 21.881 16.471 39.915 37.691 42.38l4.976 0.287h853.333zM853.333 874.667c70.782 0 128-57.218 128-128s-57.218-128-128-128c-2.682 0-5.348 0.081-7.996 0.243l-112.698-210.617c22.565-23.427 35.361-54.871 35.361-88.293 0-70.782-57.218-128-128-128s-128 57.218-128 128c0 19.691 4.35 38.707 12.524 55.485l-99.581 121.867c-12.924-4.369-26.705-6.685-40.943-6.685-13.682 0-27.014 2.177-39.523 6.241l-74.249-96.452c17.785-21.981 28.438-49.971 28.438-80.456 0-70.71-57.317-128-128-128s-128 57.29-128 128c0 70.71 57.317 128 128 128 9.024 0 17.831-0.934 26.328-2.71l79.756 103.607c-13.379 20.343-20.751 44.51-20.751 69.77 0 70.782 57.218 128 128 128s128-57.218 128-128c0-24.697-7.202-48.55-20.099-68.43l93.521-114.404c16.695 7.885 35.231 12.167 54.578 12.167 5.589 0 11.119-0.355 16.561-1.049l110.039 205.771c-26.033 24.199-41.266 57.816-41.266 93.945 0 70.782 57.218 128 128 128zM170.667 362.667c-23.564 0-42.667-19.094-42.667-42.667s19.103-42.667 42.667-42.667c23.564 0 42.667 19.094 42.667 42.667s-19.103 42.667-42.667 42.667zM640 362.667c-14.455 0-27.207-6.942-35.725-19.542-4.505-6.359-6.941-14.227-6.941-23.125 0-23.654 19.013-42.667 42.667-42.667s42.667 19.013 42.667 42.667c0 11.773-4.571 22.464-13.103 30.701-7.675 7.675-18.001 11.965-29.563 11.965zM384 661.333c-23.654 0-42.667-19.013-42.667-42.667 0-12.263 5.084-23.405 14.718-31.795 7.539-6.959 17.32-10.872 27.949-10.872 13.788 0 25.849 6.289 34.297 17.852 5.416 7.126 8.37 15.771 8.37 24.814 0 23.654-19.013 42.667-42.667 42.667zM853.333 789.333c-23.654 0-42.667-19.013-42.667-42.667 0-12.642 5.652-24.399 15.614-32.851 7.578-6.412 16.725-9.816 27.053-9.816 23.654 0 42.667 19.013 42.667 42.667s-19.013 42.667-42.667 42.667z" />
<glyph unicode="&#xe938;" glyph-name="system_banking_chart_pizza" d="M426.667 746.667c23.564 0 42.667-19.103 42.667-42.667v0-298.667h298.667c21.881 0 39.915-16.471 42.38-37.691v0l0.287-4.976c0-212.077-171.923-384-384-384s-384 171.923-384 384c0 212.077 171.923 384 384 384zM384 658.304l-7.747-1.208c-140.942-23.96-248.253-146.663-248.253-294.43 0-164.949 133.718-298.667 298.667-298.667 147.767 0 270.47 107.311 294.43 248.253v0l1.165 7.747h-295.595c-21.881 0-39.915 16.471-42.38 37.691v0l-0.287 4.976v295.637zM597.333 917.333c212.077 0 384-171.923 384-384 0-23.564-19.103-42.667-42.667-42.667v0h-341.333c-23.564 0-42.667 19.103-42.667 42.667v0 341.333c0 23.564 19.103 42.667 42.667 42.667zM640 828.971v-252.971h252.928l-1.165 7.747c-21.174 124.553-119.462 222.842-244.016 244.016v0l-7.747 1.208z" />
<glyph unicode="&#xe939;" glyph-name="system_banking_chart_report" d="M810.667 917.333c70.692 0 128-57.308 128-128v0-682.667c0-70.692-57.308-128-128-128v0h-597.333c-70.692 0-128 57.308-128 128v0 682.667c0 70.692 57.308 128 128 128v0zM810.667 832h-597.333c-23.564 0-42.667-19.103-42.667-42.667v0-682.667c0-23.564 19.103-42.667 42.667-42.667v0h597.333c23.564 0 42.667 19.103 42.667 42.667v0 682.667c0 23.564-19.103 42.667-42.667 42.667v0zM512 661.333c21.881 0 39.915-16.471 42.38-37.691l0.287-4.976v-341.333c0-23.564-19.103-42.667-42.667-42.667-21.881 0-39.915 16.471-42.38 37.691l-0.287 4.976v341.333c0 23.564 19.103 42.667 42.667 42.667zM341.333 405.333c21.881 0 39.915-16.471 42.38-37.691l0.287-4.976v-85.333c0-23.564-19.103-42.667-42.667-42.667-21.881 0-39.915 16.471-42.38 37.691l-0.287 4.976v85.333c0 23.564 19.103 42.667 42.667 42.667zM682.667 533.333c21.881 0 39.915-16.471 42.38-37.691l0.287-4.976v-213.333c0-23.564-19.103-42.667-42.667-42.667-21.881 0-39.915 16.471-42.38 37.691l-0.287 4.976v213.333c0 23.564 19.103 42.667 42.667 42.667z" />
<glyph unicode="&#xe93a;" glyph-name="system_banking_coins" d="M341.333 917.333c161.926 0 298.667-68.371 298.667-170.667v0l-0.006-131.975c20.629 2.618 42.073 3.975 64.006 3.975 150.144 0 277.333-63.595 277.333-160v0-156.444l-0.171-4.452 0.171-2.673v-156.444c0-96.411-127.178-160-277.333-160-113.613 0-214.071 36.405-256.238 95.886-33.489-6.918-69.49-10.54-106.428-10.54-158.172 0-292.294 65.222-298.446 163.585l-0.22 7.082v512l0.22 7.081c6.153 98.358 140.286 163.585 298.446 163.585zM704 142.222c-73.603 0-141.685 15.279-191.973 42.213l-0.027-45.782c0-33.203 82.927-74.667 192-74.667 105.438 0 186.443 38.745 191.726 71.321l0.274 3.346 0.063 45.83c-50.297-26.964-118.417-42.261-192.063-42.261zM127.99 283.469l0.010-48.802c0-39.095 92.477-85.333 213.333-85.333 29.797 0 58.678 2.776 85.392 8.027l0.005 84.015c-27.382-4.423-56.095-6.709-85.397-6.709-82.61 0-158.659 17.791-213.344 48.802zM896.059 340.93c-50.299-26.965-118.418-42.263-192.059-42.263-73.62 0-141.722 15.29-192.016 42.24l0.016-38.685c0-33.203 82.927-74.667 192-74.667 105.438 0 186.443 38.745 191.726 71.321l0.274 3.346zM127.99 454.135l0.010-48.802c0-39.095 92.477-85.333 213.333-85.333 29.79 0 58.667 2.785 85.398 8.053l-0.012 83.967c-27.371-4.409-56.083-6.687-85.386-6.687-82.61 0-158.659 17.791-213.344 48.802zM704 533.333c-109.062 0-192-41.469-192-74.667s82.938-74.667 192-74.667c109.062 0 192 41.469 192 74.667s-82.938 74.667-192 74.667zM554.691 624.815c-54.687-31.019-130.745-48.815-213.358-48.815-82.592 0-158.632 17.787-213.316 48.791l-0.017-48.791c0-39.095 92.477-85.333 213.333-85.333 33.027 0 64.923 3.409 93.996 9.818 17.598 41.522 61.349 74.183 119.34 94.555zM341.333 832c-120.844 0-213.333-46.245-213.333-85.333s92.489-85.333 213.333-85.333c120.844 0 213.333 46.245 213.333 85.333s-92.489 85.333-213.333 85.333z" />
<glyph unicode="&#xe93b;" glyph-name="system_banking_credit_add" d="M810.667 320c21.881 0 39.915-16.471 42.38-37.691l0.287-4.976v-85.333h85.333c23.564 0 42.667-19.103 42.667-42.667 0-21.881-16.471-39.915-37.691-42.38l-4.976-0.287h-85.333v-85.333c0-23.564-19.103-42.667-42.667-42.667-21.881 0-39.915 16.471-42.38 37.691l-0.287 4.976v85.333h-85.333c-23.564 0-42.667 19.103-42.667 42.667 0 21.881 16.471 39.915 37.691 42.38l4.976 0.287h85.333v85.333c0 23.564 19.103 42.667 42.667 42.667zM938.667 917.333c21.881 0 39.915-16.471 42.38-37.691l0.287-4.976v-469.333c0-23.564-19.103-42.667-42.667-42.667-21.881 0-39.915 16.471-42.38 37.691l-0.287 4.976 0.008 216.617c-107.278 17.994-191.933 102.708-209.839 210.016l-348.381-0.001c-17.995-107.173-102.581-191.758-209.754-209.754v-178.012c107.102-17.983 191.646-102.469 209.718-209.541l174.376 0.007c21.881 0 39.915-16.471 42.38-37.691l0.287-4.976c0-21.881-16.471-39.915-37.691-42.38l-4.976-0.287-209.29-0.053c-1.373-0.133-2.764-0.201-4.172-0.201l-4.181 0.254h-209.152c-21.881 0-39.915 16.471-42.38 37.691l-0.287 4.976v682.667c0 21.881 16.471 39.915 37.691 42.38l4.976 0.287h853.333zM128.033 357.027l-0.033-122.36 122.56-0.008c-15.499 59.845-62.652 106.945-122.527 122.368zM512 789.199c21.881 0 39.915-16.471 42.38-37.691l0.287-4.976v-42.532h64c23.564 0 42.667-19.103 42.667-42.667 0-21.881-16.471-39.915-37.691-42.38l-4.976-0.287-102.495-0.053c-1.373-0.133-2.764-0.201-4.172-0.201l-4.181 0.254h-34.833c-14.312 0-24.986-10.097-24.986-21.333 0-10.113 8.645-19.303 20.808-21.039l4.178-0.294h78.029c61.006 0 110.319-47.198 110.319-108.103 0-57.56-49.11-101.585-103.496-105.015l-3.17-0.087v-42.929c0-23.564-19.103-42.667-42.667-42.667-21.881 0-39.915 16.471-42.38 37.691l-0.287 4.976v42.801h-64c-23.564 0-42.667 19.103-42.667 42.667 0 21.881 16.471 39.915 37.691 42.38l4.976 0.287h145.681c12.707 0 24.986 10.432 24.986 19.897 0 11.628-8.336 20.769-20.715 22.481l-4.27 0.289h-78.029c-60.414 0-110.319 47.211-110.319 106.667 0 57.078 45.992 102.87 103.122 106.442l3.544 0.096v42.66c0 23.564 19.103 42.667 42.667 42.667zM896 832l-122.681-0.030c15.376-60.083 62.639-107.398 122.691-122.851l-0.010 122.88zM250.615 831.967l-122.615 0.033 0.033-122.615c59.946 15.442 107.141 62.636 122.582 122.582z" />
<glyph unicode="&#xe93c;" glyph-name="system_banking_credit_euro" d="M938.667 832c23.564 0 42.667-19.103 42.667-42.667v0-682.667c0-23.564-19.103-42.667-42.667-42.667v0l-635.828-0.053c-1.373-0.133-2.764-0.201-4.172-0.201l-4.181 0.254h-209.152c-21.881 0-39.915 16.471-42.38 37.691l-0.287 4.976v682.667c0 23.564 19.103 42.667 42.667 42.667v0zM128.033 271.694l-0.033-122.36 122.56-0.008c-15.499 59.845-62.652 106.945-122.527 122.368zM773.374 149.323l122.626 0.010 0.010 122.626c-59.981-15.434-107.202-62.655-122.636-122.636zM686.169 746.633l-348.381-0.001c-17.995-107.173-102.581-191.758-209.754-209.754v-178.012c107.102-17.983 191.646-102.469 209.718-209.541l348.453-0.001c17.982 107.207 102.596 191.821 209.803 209.803v177.489c-107.278 17.994-191.933 102.708-209.839 210.016zM535.537 661.333c37.912 0 74.505-9.949 106.663-28.543 20.399-11.796 27.374-37.895 15.579-58.294s-37.895-27.374-58.294-15.579c-19.257 11.135-41.132 17.082-63.947 17.082-26.153 0-50.473-7.841-70.737-21.3l4.533-0.033c23.564 0 42.667-19.103 42.667-42.667 0-21.881-16.471-39.915-37.691-42.38l-4.976-0.287-60.029-0.011c-1.162-6.934-1.767-14.058-1.767-21.323 0-7.28 0.607-14.417 1.775-21.365l60.022 0.032c23.564 0 42.667-19.103 42.667-42.667 0-21.881-16.471-39.915-37.691-42.38l-4.976-0.287-4.49-0.062c20.255-13.442 44.559-21.272 70.694-21.272 19.582 0 38.442 4.37 55.544 12.637l8.4 4.456c20.389 11.813 46.494 4.86 58.307-15.529s4.86-46.494-15.529-58.307c-32.157-18.631-68.763-28.589-106.722-28.589-78.946 0-147.871 42.873-184.763 106.608l-9.441 0.059c-23.564 0-42.667 19.103-42.667 42.667 0 17.261 10.249 32.127 24.994 38.846-0.957 8.217-1.457 16.627-1.457 25.154s0.5 16.937 1.473 25.203c-14.761 6.67-25.010 21.537-25.010 38.797 0 21.881 16.471 39.915 37.691 42.38l4.976 0.287 9.416 0.016c36.886 63.759 105.824 106.65 184.788 106.65zM896 746.667l-122.681-0.030c15.376-60.083 62.639-107.398 122.691-122.851l-0.010 122.88zM250.615 746.634l-122.615 0.033 0.033-122.615c59.946 15.442 107.141 62.636 122.582 122.582z" />
<glyph unicode="&#xe93d;" glyph-name="system_banking_credit_pound" d="M938.667 832c23.564 0 42.667-19.103 42.667-42.667v0-682.667c0-23.564-19.103-42.667-42.667-42.667v0l-635.828-0.053c-1.373-0.133-2.764-0.201-4.172-0.201l-4.181 0.254h-209.152c-21.881 0-39.915 16.471-42.38 37.691l-0.287 4.976v682.667c0 23.564 19.103 42.667 42.667 42.667v0zM128.033 271.694l-0.033-122.36 122.56-0.008c-15.499 59.845-62.652 106.945-122.527 122.368zM773.374 149.323l122.626 0.010 0.010 122.626c-59.981-15.434-107.202-62.655-122.636-122.636zM686.169 746.633l-348.381-0.001c-17.995-107.173-102.581-191.758-209.754-209.754v-178.012c107.102-17.983 191.646-102.469 209.718-209.541l348.453-0.001c17.982 107.207 102.596 191.821 209.803 209.803v177.489c-107.278 17.994-191.933 102.708-209.839 210.016zM664.213 580.155c10.255-21.215 1.37-46.728-19.845-56.983-19.7-9.523-43.105-2.542-54.559 15.49l-2.424 4.355c-10.315 21.339-32.505 34.327-54.913 32.967-34.134-3.107-60.549-30.538-62.953-64.789l-0.165-6.498-0.021-56.868 42.667-0.021c23.564 0 42.667-19.103 42.667-42.667 0-21.881-16.471-39.915-37.691-42.38l-4.976-0.287-42.667 0.021v-42.667l170.667-0.021c23.564 0 42.667-19.103 42.667-42.667 0-21.881-16.471-39.915-37.691-42.38l-4.976-0.287h-256c-23.564 0-42.667 19.103-42.667 42.667 0 21.881 16.471 39.915 37.691 42.38l4.976 0.287v42.667c-23.564 0-42.667 19.103-42.667 42.667 0 21.881 16.471 39.915 37.691 42.38l4.976 0.287 0.029 56.074c-1.549 81.159 59.868 149.724 141.956 157.178 58.225 3.581 112.84-28.385 138.228-80.906zM896 746.667l-122.681-0.030c15.376-60.083 62.639-107.398 122.691-122.851l-0.010 122.88zM250.615 746.634l-122.615 0.033 0.033-122.615c59.946 15.442 107.141 62.636 122.582 122.582z" />
<glyph unicode="&#xe93e;" glyph-name="system_banking_credit" d="M938.667 832c23.564 0 42.667-19.103 42.667-42.667v0-682.667c0-23.564-19.103-42.667-42.667-42.667v0l-635.828-0.053c-1.373-0.133-2.764-0.201-4.172-0.201l-4.181 0.254h-209.152c-21.881 0-39.915 16.471-42.38 37.691l-0.287 4.976v682.667c0 23.564 19.103 42.667 42.667 42.667v0zM128.033 271.694l-0.033-122.36 122.56-0.008c-15.499 59.845-62.652 106.945-122.527 122.368zM773.374 149.323l122.626 0.010 0.010 122.626c-59.981-15.434-107.202-62.655-122.636-122.636zM686.169 746.633l-348.381-0.001c-17.995-107.173-102.581-191.758-209.754-209.754v-178.012c107.102-17.983 191.646-102.469 209.718-209.541l348.453-0.001c17.982 107.207 102.596 191.821 209.803 209.803v177.489c-107.278 17.994-191.933 102.708-209.839 210.016zM512 703.866c21.881 0 39.915-16.471 42.38-37.691l0.287-4.976v-42.532h64c23.564 0 42.667-19.103 42.667-42.667 0-21.881-16.471-39.915-37.691-42.38l-4.976-0.287-102.495-0.053c-1.373-0.133-2.764-0.201-4.172-0.201l-4.181 0.254h-34.833c-14.312 0-24.986-10.097-24.986-21.333 0-10.113 8.645-19.303 20.808-21.039l4.178-0.294h78.029c61.006 0 110.319-47.198 110.319-108.103 0-57.56-49.11-101.585-103.496-105.015l-3.17-0.087v-42.929c0-23.564-19.103-42.667-42.667-42.667-21.881 0-39.915 16.471-42.38 37.691l-0.287 4.976v42.801h-64c-23.564 0-42.667 19.103-42.667 42.667 0 21.881 16.471 39.915 37.691 42.38l4.976 0.287h145.681c12.707 0 24.986 10.432 24.986 19.897 0 11.628-8.336 20.769-20.715 22.481l-4.27 0.289h-78.029c-60.414 0-110.319 47.211-110.319 106.667 0 57.078 45.992 102.87 103.122 106.442l3.544 0.096v42.66c0 23.564 19.103 42.667 42.667 42.667zM896 746.667l-122.681-0.030c15.376-60.083 62.639-107.398 122.691-122.851l-0.010 122.88zM250.615 746.634l-122.615 0.033 0.033-122.615c59.946 15.442 107.141 62.636 122.582 122.582z" />
<glyph unicode="&#xe93f;" glyph-name="system_banking_currency_euro" d="M640 917.333c72.118 0 138.019-15.151 193.025-48.994 20.070-12.348 26.329-38.628 13.981-58.698s-38.628-26.329-58.698-13.981c-40.116 24.682-90.822 36.339-148.309 36.339-161.068 0-281.927-102.053-324.584-256.009l281.918 0.009c23.564 0 42.667-19.103 42.667-42.667 0-21.881-16.471-39.915-37.691-42.38l-4.976-0.287-296.925-0.006c-1.154-13.941-1.742-28.17-1.742-42.66 0-14.505 0.589-28.748 1.745-42.703l296.922 0.036c23.564 0 42.667-19.103 42.667-42.667 0-21.881-16.471-39.915-37.691-42.38l-4.976-0.287-281.906-0.034c42.668-153.932 163.519-255.966 324.572-255.966 52.039 0 102.355 12.355 150.852 37.786 20.869 10.943 46.658 2.897 57.601-17.972s2.897-46.658-17.972-57.601c-60.74-31.852-124.658-47.547-190.482-47.547-210.352 0-366.245 140.061-412.506 341.311l-99.494 0.022c-23.564 0-42.667 19.103-42.667 42.667 0 21.881 16.471 39.915 37.691 42.38l4.976 0.287 86.838-0.014c-0.998 14.022-1.505 28.256-1.505 42.681 0 14.41 0.506 28.629 1.502 42.638l-86.835 0.029c-23.564 0-42.667 19.103-42.667 42.667 0 21.881 16.471 39.915 37.691 42.38l4.976 0.287 99.484-0.021c46.249 201.273 202.149 341.354 412.516 341.354z" />
<glyph unicode="&#xe940;" glyph-name="system_banking_currency_pound" d="M597.333 874.667c116.749 0 177.787-40.375 248.84-147.008 13.066-19.61 7.762-46.099-11.847-59.165s-46.099-7.762-59.165 11.847c-56.53 84.837-93.046 108.992-177.827 108.992-91.383 0-166.018-71.866-170.458-162.15l-0.209-8.516v-170.667h170.667c23.564 0 42.667-19.103 42.667-42.667 0-21.881-16.471-39.915-37.691-42.38l-4.976-0.287h-170.667v-256h384c23.564 0 42.667-19.103 42.667-42.667 0-21.881-16.471-39.915-37.691-42.38l-4.976-0.287h-554.667c-23.564 0-42.667 19.103-42.667 42.667 0 21.881 16.471 39.915 37.691 42.38l4.976 0.287h85.333v256h-85.333c-23.564 0-42.667 19.103-42.667 42.667 0 21.881 16.471 39.915 37.691 42.38l4.976 0.287h85.333v170.667c0 141.367 114.633 256 256 256z" />
<glyph unicode="&#xe941;" glyph-name="system_banking_currency_yen" d="M793.6 866.133c17.401-13.051 21.995-36.842 11.479-55.252l-2.945-4.481-236.803-315.731 202.669-0.003c23.564 0 42.667-19.103 42.667-42.667 0-21.881-16.471-39.915-37.691-42.38l-4.976-0.287-213.336 0.003v-128l213.336-0.003c23.564 0 42.667-19.103 42.667-42.667 0-21.881-16.471-39.915-37.691-42.38l-4.976-0.287-213.336 0.003 0.003-170.669c0-23.564-19.103-42.667-42.667-42.667-21.881 0-39.915 16.471-42.38 37.691l-0.287 4.976-0.003 170.669-213.331-0.003c-23.564 0-42.667 19.103-42.667 42.667 0 21.881 16.471 39.915 37.691 42.38l4.976 0.287 213.331 0.003v128l-213.331-0.003c-23.564 0-42.667 19.103-42.667 42.667 0 21.881 16.471 39.915 37.691 42.38l4.976 0.287 202.664 0.003-236.797 315.731c-14.138 18.851-10.318 45.595 8.533 59.733 17.401 13.051 41.527 10.799 56.256-4.451l3.477-4.082 221.867-295.808 221.867 295.808c14.138 18.851 40.882 22.672 59.733 8.533z" />
<glyph unicode="&#xe942;" glyph-name="system_banking_currency" d="M512 917.333c21.881 0 39.915-16.471 42.38-37.691l0.287-4.976v-85.333h170.667c23.564 0 42.667-19.103 42.667-42.667 0-21.881-16.471-39.915-37.691-42.38l-4.976-0.287h-320c-58.91 0-106.667-47.756-106.667-106.667 0-56.554 44.012-102.828 99.653-106.44l7.013-0.227h213.333c106.039 0 192-85.961 192-192 0-103.009-81.119-187.072-182.962-191.791l-9.038-0.209h-64v-85.333c0-23.564-19.103-42.667-42.667-42.667-21.881 0-39.915 16.471-42.38 37.691l-0.287 4.976v85.333h-213.333c-23.564 0-42.667 19.103-42.667 42.667 0 21.881 16.471 39.915 37.691 42.38l4.976 0.287 255.268-0.006c0.244 0.004 0.488 0.006 0.732 0.006h106.667c58.91 0 106.667 47.756 106.667 106.667 0 56.554-44.012 102.828-99.653 106.44l-7.013 0.227h-213.333c-106.039 0-192 85.961-192 192 0 103.009 81.119 187.072 182.962 191.791l9.038 0.209h64v85.333c0 23.564 19.103 42.667 42.667 42.667z" />
</font>
</defs>
</svg>
